  0
SECTION
  2
HEADER
  9
$ACADVER
  1
AC1021
  9
$ACADMAINTVER
 70
     1
  9
$DWGCODEPAGE
  3
ANSI_936
  9
$LASTSAVEDBY
  1
Andy
  9
$INSBASE
 10
0.0
 20
0.0
 30
0.0
  9
$EXTMIN
 10
-36.72010815462227
 20
148.2519991022684
 30
-0.0000000000000058
  9
$EXTMAX
 10
426.3198830697602
 20
679.3425514717912
 30
0.0000000000000104
  9
$LIMMIN
 10
0.0
 20
0.0
  9
$LIMMAX
 10
420.0
 20
297.0
  9
$ORTHOMODE
 70
     1
  9
$REGENMODE
 70
     1
  9
$FILLMODE
 70
     1
  9
$QTEXTMODE
 70
     0
  9
$MIRRTEXT
 70
     0
  9
$LTSCALE
 40
1.0
  9
$ATTMODE
 70
     1
  9
$TEXTSIZE
 40
2.5
  9
$TRACEWID
 40
1.0
  9
$TEXTSTYLE
  7
Standard
  9
$CLAYER
  8
0
  9
$CELTYPE
  6
ByLayer
  9
$CECOLOR
 62
     3
  9
$CELTSCALE
 40
1.0
  9
$DISPSILH
 70
     0
  9
$DIMSCALE
 40
1.0
  9
$DIMASZ
 40
2.5
  9
$DIMEXO
 40
0.625
  9
$DIMDLI
 40
3.75
  9
$DIMRND
 40
0.0
  9
$DIMDLE
 40
0.0
  9
$DIMEXE
 40
1.25
  9
$DIMTP
 40
0.0
  9
$DIMTM
 40
0.0
  9
$DIMTXT
 40
15.0
  9
$DIMCEN
 40
2.5
  9
$DIMTSZ
 40
0.0
  9
$DIMTOL
 70
     0
  9
$DIMLIM
 70
     0
  9
$DIMTIH
 70
     0
  9
$DIMTOH
 70
     0
  9
$DIMSE1
 70
     0
  9
$DIMSE2
 70
     0
  9
$DIMTAD
 70
     1
  9
$DIMZIN
 70
     8
  9
$DIMBLK
  1

  9
$DIMASO
 70
     1
  9
$DIMSHO
 70
     1
  9
$DIMPOST
  1

  9
$DIMAPOST
  1

  9
$DIMALT
 70
     0
  9
$DIMALTD
 70
     3
  9
$DIMALTF
 40
0.03937007874016
  9
$DIMLFAC
 40
1.0
  9
$DIMTOFL
 70
     1
  9
$DIMTVP
 40
0.0
  9
$DIMTIX
 70
     0
  9
$DIMSOXD
 70
     0
  9
$DIMSAH
 70
     0
  9
$DIMBLK1
  1

  9
$DIMBLK2
  1

  9
$DIMSTYLE
  2
ISO-25
  9
$DIMCLRD
 70
     0
  9
$DIMCLRE
 70
     0
  9
$DIMCLRT
 70
     0
  9
$DIMTFAC
 40
1.0
  9
$DIMGAP
 40
0.625
  9
$DIMJUST
 70
     0
  9
$DIMSD1
 70
     0
  9
$DIMSD2
 70
     0
  9
$DIMTOLJ
 70
     0
  9
$DIMTZIN
 70
     8
  9
$DIMALTZ
 70
     0
  9
$DIMALTTZ
 70
     0
  9
$DIMUPT
 70
     0
  9
$DIMDEC
 70
     2
  9
$DIMTDEC
 70
     2
  9
$DIMALTU
 70
     2
  9
$DIMALTTD
 70
     3
  9
$DIMTXSTY
  7
Standard
  9
$DIMAUNIT
 70
     0
  9
$DIMADEC
 70
     0
  9
$DIMALTRND
 40
0.0
  9
$DIMAZIN
 70
     0
  9
$DIMDSEP
 70
    44
  9
$DIMATFIT
 70
     3
  9
$DIMFRAC
 70
     0
  9
$DIMLDRBLK
  1

  9
$DIMLUNIT
 70
     2
  9
$DIMLWD
 70
    -2
  9
$DIMLWE
 70
    -2
  9
$DIMTMOVE
 70
     0
  9
$DIMFXL
 40
1.0
  9
$DIMFXLON
 70
     0
  9
$DIMJOGANG
 40
0.7853981633974483
  9
$DIMTFILL
 70
     0
  9
$DIMTFILLCLR
 70
     0
  9
$DIMARCSYM
 70
     0
  9
$DIMLTYPE
  6

  9
$DIMLTEX1
  6

  9
$DIMLTEX2
  6

  9
$LUNITS
 70
     2
  9
$LUPREC
 70
     4
  9
$SKETCHINC
 40
1.0
  9
$FILLETRAD
 40
5.0
  9
$AUNITS
 70
     0
  9
$AUPREC
 70
     0
  9
$MENU
  1
.
  9
$ELEVATION
 40
0.0
  9
$PELEVATION
 40
0.0
  9
$THICKNESS
 40
0.0
  9
$LIMCHECK
 70
     0
  9
$CHAMFERA
 40
0.0
  9
$CHAMFERB
 40
0.0
  9
$CHAMFERC
 40
0.0
  9
$CHAMFERD
 40
0.0
  9
$SKPOLY
 70
     0
  9
$TDCREATE
 40
2457662.598406215
  9
$TDUCREATE
 40
2457662.265072882
  9
$TDUPDATE
 40
2457671.462911887
  9
$TDUUPDATE
 40
2457671.129578553
  9
$TDINDWG
 40
0.0300982407
  9
$TDUSRTIMER
 40
0.0300976736
  9
$USRTIMER
 70
     1
  9
$ANGBASE
 50
0.0
  9
$ANGDIR
 70
     0
  9
$PDMODE
 70
     0
  9
$PDSIZE
 40
0.0
  9
$PLINEWID
 40
0.0
  9
$SPLFRAME
 70
     0
  9
$SPLINETYPE
 70
     6
  9
$SPLINESEGS
 70
     8
  9
$HANDSEED
  5
243
  9
$SURFTAB1
 70
     6
  9
$SURFTAB2
 70
     6
  9
$SURFTYPE
 70
     6
  9
$SURFU
 70
     6
  9
$SURFV
 70
     6
  9
$UCSBASE
  2

  9
$UCSNAME
  2

  9
$UCSORG
 10
0.0
 20
0.0
 30
0.0
  9
$UCSXDIR
 10
1.0
 20
0.0
 30
0.0
  9
$UCSYDIR
 10
0.0
 20
1.0
 30
0.0
  9
$UCSORTHOREF
  2

  9
$UCSORTHOVIEW
 70
     0
  9
$UCSORGTOP
 10
0.0
 20
0.0
 30
0.0
  9
$UCSORGBOTTOM
 10
0.0
 20
0.0
 30
0.0
  9
$UCSORGLEFT
 10
0.0
 20
0.0
 30
0.0
  9
$UCSORGRIGHT
 10
0.0
 20
0.0
 30
0.0
  9
$UCSORGFRONT
 10
0.0
 20
0.0
 30
0.0
  9
$UCSORGBACK
 10
0.0
 20
0.0
 30
0.0
  9
$PUCSBASE
  2

  9
$PUCSNAME
  2

  9
$PUCSORG
 10
0.0
 20
0.0
 30
0.0
  9
$PUCSXDIR
 10
1.0
 20
0.0
 30
0.0
  9
$PUCSYDIR
 10
0.0
 20
1.0
 30
0.0
  9
$PUCSORTHOREF
  2

  9
$PUCSORTHOVIEW
 70
     0
  9
$PUCSORGTOP
 10
0.0
 20
0.0
 30
0.0
  9
$PUCSORGBOTTOM
 10
0.0
 20
0.0
 30
0.0
  9
$PUCSORGLEFT
 10
0.0
 20
0.0
 30
0.0
  9
$PUCSORGRIGHT
 10
0.0
 20
0.0
 30
0.0
  9
$PUCSORGFRONT
 10
0.0
 20
0.0
 30
0.0
  9
$PUCSORGBACK
 10
0.0
 20
0.0
 30
0.0
  9
$USERI1
 70
     0
  9
$USERI2
 70
     0
  9
$USERI3
 70
     0
  9
$USERI4
 70
     0
  9
$USERI5
 70
     0
  9
$USERR1
 40
0.0
  9
$USERR2
 40
0.0
  9
$USERR3
 40
0.0
  9
$USERR4
 40
0.0
  9
$USERR5
 40
0.0
  9
$WORLDVIEW
 70
     1
  9
$SHADEDGE
 70
     3
  9
$SHADEDIF
 70
    70
  9
$TILEMODE
 70
     1
  9
$MAXACTVP
 70
    64
  9
$PINSBASE
 10
0.0
 20
0.0
 30
0.0
  9
$PLIMCHECK
 70
     0
  9
$PEXTMIN
 10
0.0
 20
0.0
 30
0.0
  9
$PEXTMAX
 10
0.0
 20
0.0
 30
0.0
  9
$PLIMMIN
 10
0.0
 20
0.0
  9
$PLIMMAX
 10
12.0
 20
9.0
  9
$UNITMODE
 70
     0
  9
$VISRETAIN
 70
     1
  9
$PLINEGEN
 70
     0
  9
$PSLTSCALE
 70
     1
  9
$TREEDEPTH
 70
  3020
  9
$CMLSTYLE
  2
Standard
  9
$CMLJUST
 70
     0
  9
$CMLSCALE
 40
20.0
  9
$PROXYGRAPHICS
 70
     1
  9
$MEASUREMENT
 70
     1
  9
$CELWEIGHT
370
    -1
  9
$ENDCAPS
280
     0
  9
$JOINSTYLE
280
     0
  9
$LWDISPLAY
290
     0
  9
$INSUNITS
 70
     4
  9
$HYPERLINKBASE
  1

  9
$STYLESHEET
  1

  9
$XEDIT
290
     1
  9
$CEPSNTYPE
380
     0
  9
$PSTYLEMODE
290
     1
  9
$FINGERPRINTGUID
  2
{159DD73E-073E-431D-8FB2-49B1AACD06DB}
  9
$VERSIONGUID
  2
{0ACCE269-47EC-4E96-B25E-3BC8BCF675DA}
  9
$EXTNAMES
290
     1
  9
$PSVPSCALE
 40
0.0
  9
$OLESTARTUP
290
     0
  9
$SORTENTS
280
   127
  9
$INDEXCTL
280
     0
  9
$HIDETEXT
280
     1
  9
$XCLIPFRAME
290
     0
  9
$HALOGAP
280
     0
  9
$OBSCOLOR
 70
   257
  9
$OBSLTYPE
280
     0
  9
$INTERSECTIONDISPLAY
280
     0
  9
$INTERSECTIONCOLOR
 70
   257
  9
$DIMASSOC
280
     2
  9
$PROJECTNAME
  1

  9
$CAMERADISPLAY
290
     0
  9
$LENSLENGTH
 40
50.0
  9
$CAMERAHEIGHT
 40
0.0
  9
$STEPSPERSEC
 40
2.0
  9
$STEPSIZE
 40
6.0
  9
$3DDWFPREC
 40
2.0
  9
$PSOLWIDTH
 40
5.0
  9
$PSOLHEIGHT
 40
80.0
  9
$LOFTANG1
 40
1.570796326794896
  9
$LOFTANG2
 40
1.570796326794896
  9
$LOFTMAG1
 40
0.0
  9
$LOFTMAG2
 40
0.0
  9
$LOFTPARAM
 70
     7
  9
$LOFTNORMALS
280
     1
  9
$LATITUDE
 40
37.795
  9
$LONGITUDE
 40
-122.394
  9
$NORTHDIRECTION
 40
0.0
  9
$TIMEZONE
 70
 -8000
  9
$LIGHTGLYPHDISPLAY
280
     1
  9
$TILEMODELIGHTSYNCH
280
     1
  9
$CMATERIAL
347
ED
  9
$SOLIDHIST
280
     1
  9
$SHOWHIST
280
     1
  9
$DWFFRAME
280
     2
  9
$DGNFRAME
280
     0
  9
$REALWORLDSCALE
290
     1
  9
$INTERFERECOLOR
 62
     1
  9
$INTERFEREOBJVS
345
FA
  9
$INTERFEREVPVS
346
F7
  9
$CSHADOW
280
     0
  9
$SHADOWPLANELOCATION
 40
0.0
  0
ENDSEC
  0
SECTION
  2
CLASSES
  0
CLASS
  1
ACDBDICTIONARYWDFLT
  2
AcDbDictionaryWithDefault
  3
ObjectDBX Classes
 90
        0
 91
        1
280
     0
281
     0
  0
CLASS
  1
DICTIONARYVAR
  2
AcDbDictionaryVar
  3
ObjectDBX Classes
 90
        0
 91
        3
280
     0
281
     0
  0
CLASS
  1
TABLESTYLE
  2
AcDbTableStyle
  3
ObjectDBX Classes
 90
     4095
 91
        1
280
     0
281
     0
  0
CLASS
  1
MATERIAL
  2
AcDbMaterial
  3
ObjectDBX Classes
 90
     1024
 91
        3
280
     0
281
     0
  0
CLASS
  1
VISUALSTYLE
  2
AcDbVisualStyle
  3
ObjectDBX Classes
 90
     4095
 91
       16
280
     0
281
     0
  0
CLASS
  1
SORTENTSTABLE
  2
AcDbSortentsTable
  3
ObjectDBX Classes
 90
        0
 91
        1
280
     0
281
     0
  0
CLASS
  1
DIMASSOC
  2
AcDbDimAssoc
  3
"AcDbDimAssoc|Product Desc:     AcDim ARX App For Dimension|Company:          Autodesk, Inc.|WEB Address:      www.autodesk.com"
 90
        0
 91
        3
280
     0
281
     0
  0
ENDSEC
  0
SECTION
  2
TABLES
  0
TABLE
  2
VPORT
  5
8
330
0
100
AcDbSymbolTable
 70
     1
  0
VPORT
  5
EB
330
8
100
AcDbSymbolTableRecord
100
AcDbViewportTableRecord
  2
*Active
 70
     0
 10
0.0
 20
0.0
 11
1.0
 21
1.0
 12
252.4618613601301
 22
575.5682522759396
 13
0.0
 23
0.0
 14
10.0
 24
10.0
 15
10.0
 25
10.0
 16
0.0
 26
0.0
 36
1.0
 17
0.0
 27
0.0
 37
0.0
 40
524.6852594506588
 41
2.225806451612903
 42
50.0
 43
0.0
 44
0.0
 50
0.0
 51
0.0
 71
     0
 72
  1000
 73
     1
 74
     3
 75
     0
 76
     0
 77
     0
 78
     0
281
     0
 65
     1
110
0.0
120
0.0
130
0.0
111
1.0
121
0.0
131
0.0
112
0.0
122
1.0
132
0.0
 79
     0
146
0.0
348
F6
 60
     2
 61
     5
292
     1
282
     1
141
0.0
142
0.0
 63
   250
421
  3355443
  0
ENDTAB
  0
TABLE
  2
LTYPE
  5
5
330
0
100
AcDbSymbolTable
 70
     1
  0
LTYPE
  5
14
330
5
100
AcDbSymbolTableRecord
100
AcDbLinetypeTableRecord
  2
ByBlock
 70
     0
  3

 72
    65
 73
     0
 40
0.0
  0
LTYPE
  5
15
330
5
100
AcDbSymbolTableRecord
100
AcDbLinetypeTableRecord
  2
ByLayer
 70
     0
  3

 72
    65
 73
     0
 40
0.0
  0
LTYPE
  5
16
330
5
100
AcDbSymbolTableRecord
100
AcDbLinetypeTableRecord
  2
Continuous
 70
     0
  3
Solid line
 72
    65
 73
     0
 40
0.0
  0
ENDTAB
  0
TABLE
  2
LAYER
  5
2
330
0
100
AcDbSymbolTable
 70
     2
  0
LAYER
  5
10
330
2
100
AcDbSymbolTableRecord
100
AcDbLayerTableRecord
  2
0
 70
     0
 62
     7
  6
Continuous
370
    -3
390
F
347
EF
  0
LAYER
  5
1DE
330
2
100
AcDbSymbolTableRecord
100
AcDbLayerTableRecord
  2
Defpoints
 70
     0
 62
     7
  6
Continuous
290
     0
370
    -3
390
F
347
EF
  0
ENDTAB
  0
TABLE
  2
STYLE
  5
3
330
0
100
AcDbSymbolTable
 70
     1
  0
STYLE
  5
11
330
3
100
AcDbSymbolTableRecord
100
AcDbTextStyleTableRecord
  2
Standard
 70
     0
 40
0.0
 41
1.0
 50
0.0
 71
     0
 42
2.5
  3
txt
  4
gbcbig.shx
  0
ENDTAB
  0
TABLE
  2
VIEW
  5
6
330
0
100
AcDbSymbolTable
 70
     0
  0
ENDTAB
  0
TABLE
  2
UCS
  5
7
330
0
100
AcDbSymbolTable
 70
     0
  0
ENDTAB
  0
TABLE
  2
APPID
  5
9
330
0
100
AcDbSymbolTable
 70
     3
  0
APPID
  5
12
330
9
100
AcDbSymbolTableRecord
100
AcDbRegAppTableRecord
  2
ACAD
 70
     0
  0
APPID
  5
9E
330
9
100
AcDbSymbolTableRecord
100
AcDbRegAppTableRecord
  2
ACAD_PSEXT
 70
     0
  0
APPID
  5
14C
330
9
100
AcDbSymbolTableRecord
100
AcDbRegAppTableRecord
  2
ACAD_EXEMPT_FROM_CAD_STANDARDS
 70
     0
  0
ENDTAB
  0
TABLE
  2
DIMSTYLE
  5
A
330
0
100
AcDbSymbolTable
 70
     1
100
AcDbDimStyleTable
 71
     1
340
27
  0
DIMSTYLE
105
27
102
{ACAD_REACTORS
330
1F6
330
20E
330
226
102
}
330
A
100
AcDbSymbolTableRecord
100
AcDbDimStyleTableRecord
  2
ISO-25
 70
     0
 41
2.5
 42
0.625
 43
3.75
 44
1.25
 73
     0
 74
     0
 77
     1
 78
     8
140
15.0
141
2.5
143
0.03937007874016
147
0.625
171
     3
172
     1
271
     2
272
     2
274
     3
278
    44
283
     0
284
     8
340
11
  0
ENDTAB
  0
TABLE
  2
BLOCK_RECORD
  5
1
330
0
100
AcDbSymbolTable
 70
     5
  0
BLOCK_RECORD
  5
1F
102
{ACAD_XDICTIONARY
360
12D
102
}
330
1
100
AcDbSymbolTableRecord
100
AcDbBlockTableRecord
  2
*Model_Space
340
22
 70
     0
280
     1
281
     0
  0
BLOCK_RECORD
  5
D2
330
1
100
AcDbSymbolTableRecord
100
AcDbBlockTableRecord
  2
*Paper_Space
340
D3
 70
     0
280
     1
281
     0
  0
BLOCK_RECORD
  5
D6
330
1
100
AcDbSymbolTableRecord
100
AcDbBlockTableRecord
  2
*Paper_Space0
340
D7
 70
     0
280
     1
281
     0
  0
BLOCK_RECORD
  5
1DF
330
1
100
AcDbSymbolTableRecord
100
AcDbBlockTableRecord
  2
*D1
340
0
 70
     0
280
     1
281
     0
  0
BLOCK_RECORD
  5
1F7
330
1
100
AcDbSymbolTableRecord
100
AcDbBlockTableRecord
  2
*D2
340
0
 70
     0
280
     1
281
     0
  0
BLOCK_RECORD
  5
20F
330
1
100
AcDbSymbolTableRecord
100
AcDbBlockTableRecord
  2
*D3
340
0
 70
     0
280
     1
281
     0
  0
BLOCK_RECORD
  5
227
330
1
100
AcDbSymbolTableRecord
100
AcDbBlockTableRecord
  2
*D4
340
0
 70
     0
280
     1
281
     0
  0
ENDTAB
  0
ENDSEC
  0
SECTION
  2
BLOCKS
  0
BLOCK
  5
20
330
1F
100
AcDbEntity
  8
0
100
AcDbBlockBegin
  2
*Model_Space
 70
     0
 10
0.0
 20
0.0
 30
0.0
  3
*Model_Space
  1

  0
ENDBLK
  5
21
330
1F
100
AcDbEntity
  8
0
100
AcDbBlockEnd
  0
BLOCK
  5
D4
330
D2
100
AcDbEntity
 67
     1
  8
0
100
AcDbBlockBegin
  2
*Paper_Space
 70
     0
 10
0.0
 20
0.0
 30
0.0
  3
*Paper_Space
  1

  0
ENDBLK
  5
D5
330
D2
100
AcDbEntity
 67
     1
  8
0
100
AcDbBlockEnd
  0
BLOCK
  5
D8
330
D6
100
AcDbEntity
 67
     1
  8
0
100
AcDbBlockBegin
  2
*Paper_Space0
 70
     0
 10
0.0
 20
0.0
 30
0.0
  3
*Paper_Space0
  1

  0
ENDBLK
  5
D9
330
D6
100
AcDbEntity
 67
     1
  8
0
100
AcDbBlockEnd
  0
BLOCK
  5
1E9
330
1DF
100
AcDbEntity
  8
0
 62
     1
100
AcDbBlockBegin
  2
*D1
 70
     1
 10
0.0
 20
0.0
 30
0.0
  3
*D1
  1

  0
LINE
  5
1EC
330
1DF
100
AcDbEntity
  8
0
 62
     0
370
    -2
100
AcDbLine
 10
69.80386837773585
 20
293.9199233329237
 30
0.0
 11
69.80386837773585
 21
296.1861504979229
 31
0.0
  0
LINE
  5
1ED
330
1DF
100
AcDbEntity
  8
0
 62
     0
370
    -2
100
AcDbLine
 10
319.8038683777359
 20
299.7219451077867
 30
0.0
 11
319.8038683777359
 21
293.6861504979229
 31
0.0
  0
LINE
  5
1EE
330
1DF
100
AcDbEntity
  8
0
 62
     0
370
    -2
100
AcDbLine
 10
72.30386837773584
 20
294.9361504979229
 30
0.0
 11
317.3038683777359
 21
294.9361504979229
 31
0.0
  0
SOLID
  5
1EF
330
1DF
100
AcDbEntity
  8
0
 62
     0
100
AcDbTrace
 10
72.30386837773584
 20
295.3528171645896
 30
0.0
 11
72.30386837773584
 21
294.5194838312562
 31
0.0
 12
69.80386837773585
 22
294.9361504979229
 32
0.0
 13
69.80386837773585
 23
294.9361504979229
 33
0.0
  0
SOLID
  5
1F0
330
1DF
100
AcDbEntity
  8
0
 62
     0
100
AcDbTrace
 10
317.3038683777359
 20
295.3528171645896
 30
0.0
 11
317.3038683777359
 21
294.5194838312562
 31
0.0
 12
319.8038683777359
 22
294.9361504979229
 32
0.0
 13
319.8038683777359
 23
294.9361504979229
 33
0.0
  0
MTEXT
  5
1F1
330
1DF
100
AcDbEntity
  8
0
 62
     0
100
AcDbMText
 10
194.8038683777358
 20
296.8111504979229
 30
0.0
 40
2.5
 41
0.0
 46
0.0
 71
     5
 72
     1
  1
250
 73
     1
 44
1.0
  0
POINT
  5
1F2
330
1DF
100
AcDbEntity
  8
Defpoints
 62
     0
100
AcDbPoint
 10
69.80386837773585
 20
293.2949233329237
 30
0.0
  0
POINT
  5
1F3
330
1DF
100
AcDbEntity
  8
Defpoints
 62
     0
100
AcDbPoint
 10
319.8038683777359
 20
300.3469451077867
 30
0.0
  0
POINT
  5
1F4
330
1DF
100
AcDbEntity
  8
Defpoints
 62
     0
100
AcDbPoint
 10
319.8038683777359
 20
294.9361504979229
 30
0.0
  0
ENDBLK
  5
1EA
330
1DF
100
AcDbEntity
  8
0
 62
     1
100
AcDbBlockEnd
  0
BLOCK
  5
201
330
1F7
100
AcDbEntity
  8
0
 62
     3
100
AcDbBlockBegin
  2
*D2
 70
     1
 10
0.0
 20
0.0
 30
0.0
  3
*D2
  1

  0
LINE
  5
204
330
1F7
100
AcDbEntity
  8
0
 62
     0
370
    -2
100
AcDbLine
 10
69.80386837773585
 20
292.6699233329236
 30
0.0
 11
69.80386837773585
 21
281.7824003614737
 31
0.0
  0
LINE
  5
205
330
1F7
100
AcDbEntity
  8
0
 62
     0
370
    -2
100
AcDbLine
 10
319.8038683777359
 20
292.6699233329236
 30
0.0
 11
319.8038683777359
 21
281.7824003614737
 31
0.0
  0
LINE
  5
206
330
1F7
100
AcDbEntity
  8
0
 62
     0
370
    -2
100
AcDbLine
 10
72.30386837773584
 20
283.0324003614737
 30
0.0
 11
317.3038683777359
 21
283.0324003614737
 31
0.0
  0
SOLID
  5
207
330
1F7
100
AcDbEntity
  8
0
 62
     0
100
AcDbTrace
 10
72.30386837773584
 20
283.4490670281403
 30
0.0
 11
72.30386837773584
 21
282.6157336948071
 31
0.0
 12
69.80386837773585
 22
283.0324003614737
 32
0.0
 13
69.80386837773585
 23
283.0324003614737
 33
0.0
  0
SOLID
  5
208
330
1F7
100
AcDbEntity
  8
0
 62
     0
100
AcDbTrace
 10
317.3038683777359
 20
283.4490670281403
 30
0.0
 11
317.3038683777359
 21
282.6157336948071
 31
0.0
 12
319.8038683777359
 22
283.0324003614737
 32
0.0
 13
319.8038683777359
 23
283.0324003614737
 33
0.0
  0
MTEXT
  5
209
330
1F7
100
AcDbEntity
  8
0
 62
     0
100
AcDbMText
 10
194.8038683777358
 20
291.1574003614737
 30
0.0
 40
15.0
 41
0.0
 46
0.0
 71
     5
 72
     1
  1
250
 73
     1
 44
1.0
  0
POINT
  5
20A
330
1F7
100
AcDbEntity
  8
Defpoints
 62
     0
100
AcDbPoint
 10
69.80386837773585
 20
293.2949233329237
 30
0.0
  0
POINT
  5
20B
330
1F7
100
AcDbEntity
  8
Defpoints
 62
     0
100
AcDbPoint
 10
319.8038683777359
 20
293.2949233329237
 30
0.0
  0
POINT
  5
20C
330
1F7
100
AcDbEntity
  8
Defpoints
 62
     0
100
AcDbPoint
 10
319.8038683777359
 20
283.0324003614737
 30
0.0
  0
ENDBLK
  5
202
330
1F7
100
AcDbEntity
  8
0
 62
     3
100
AcDbBlockEnd
  0
BLOCK
  5
219
330
20F
100
AcDbEntity
  8
0
 62
     3
100
AcDbBlockBegin
  2
*D3
 70
     1
 10
0.0
 20
0.0
 30
0.0
  3
*D3
  1

  0
LINE
  5
21C
330
20F
100
AcDbEntity
  8
0
 62
     0
370
    -2
100
AcDbLine
 10
273.7471545468811
 20
388.2949233329236
 30
0.0
 11
274.9135893545786
 21
388.2949233329236
 31
0.0
  0
LINE
  5
21D
330
20F
100
AcDbEntity
  8
0
 62
     0
370
    -2
100
AcDbLine
 10
273.7471545468811
 20
198.2949233329236
 30
0.0
 11
274.9135893545786
 21
198.2949233329236
 31
0.0
  0
LINE
  5
21E
330
20F
100
AcDbEntity
  8
0
 62
     0
370
    -2
100
AcDbLine
 10
273.6635893545785
 20
385.7949233329236
 30
0.0
 11
273.6635893545785
 21
200.7949233329236
 31
0.0
  0
SOLID
  5
21F
330
20F
100
AcDbEntity
  8
0
 62
     0
100
AcDbTrace
 10
273.2469226879119
 20
385.7949233329236
 30
0.0
 11
274.0802560212453
 21
385.7949233329236
 31
0.0
 12
273.6635893545785
 22
388.2949233329236
 32
0.0
 13
273.6635893545785
 23
388.2949233329236
 33
0.0
  0
SOLID
  5
220
330
20F
100
AcDbEntity
  8
0
 62
     0
100
AcDbTrace
 10
273.2469226879119
 20
200.7949233329236
 30
0.0
 11
274.0802560212452
 21
200.7949233329236
 31
0.0
 12
273.6635893545785
 22
198.2949233329236
 32
0.0
 13
273.6635893545785
 23
198.2949233329236
 33
0.0
  0
MTEXT
  5
221
330
20F
100
AcDbEntity
  8
0
 62
     0
100
AcDbMText
 10
265.5385893545785
 20
293.2949233329237
 30
0.0
 40
15.0
 41
0.0
 46
0.0
 71
     5
 72
     1
  1
190
 11
0.0000000000000001
 21
1.0
 31
0.0
 73
     1
 44
1.0
  0
POINT
  5
222
330
20F
100
AcDbEntity
  8
Defpoints
 62
     0
100
AcDbPoint
 10
273.1221545468811
 20
388.2949233329236
 30
0.0
  0
POINT
  5
223
330
20F
100
AcDbEntity
  8
Defpoints
 62
     0
100
AcDbPoint
 10
273.1221545468811
 20
198.2949233329236
 30
0.0
  0
POINT
  5
224
330
20F
100
AcDbEntity
  8
Defpoints
 62
     0
100
AcDbPoint
 10
273.6635893545785
 20
198.2949233329236
 30
0.0
  0
ENDBLK
  5
21A
330
20F
100
AcDbEntity
  8
0
 62
     3
100
AcDbBlockEnd
  0
BLOCK
  5
231
330
227
100
AcDbEntity
  8
0
 62
     3
100
AcDbBlockBegin
  2
*D4
 70
     1
 10
0.0
 20
0.0
 30
0.0
  3
*D4
  1

  0
LINE
  5
234
330
227
100
AcDbEntity
  8
0
 62
     0
370
    -2
100
AcDbLine
 10
319.8038683777359
 20
369.2872168377694
 30
0.0
 11
319.8038683777359
 21
366.7993388712662
 31
0.0
  0
LINE
  5
235
330
227
100
AcDbEntity
  8
0
 62
     0
370
    -2
100
AcDbLine
 10
369.8038683777359
 20
369.2872168377694
 30
0.0
 11
369.8038683777359
 21
366.7993388712662
 31
0.0
  0
LINE
  5
236
330
227
100
AcDbEntity
  8
0
 62
     0
370
    -2
100
AcDbLine
 10
322.3038683777359
 20
368.0493388712662
 30
0.0
 11
367.3038683777359
 21
368.0493388712662
 31
0.0
  0
SOLID
  5
237
330
227
100
AcDbEntity
  8
0
 62
     0
100
AcDbTrace
 10
322.3038683777359
 20
368.4660055379329
 30
0.0
 11
322.3038683777359
 21
367.6326722045995
 31
0.0
 12
319.8038683777359
 22
368.0493388712662
 32
0.0
 13
319.8038683777359
 23
368.0493388712662
 33
0.0
  0
SOLID
  5
238
330
227
100
AcDbEntity
  8
0
 62
     0
100
AcDbTrace
 10
367.3038683777359
 20
368.4660055379329
 30
0.0
 11
367.3038683777359
 21
367.6326722045995
 31
0.0
 12
369.8038683777359
 22
368.0493388712662
 32
0.0
 13
369.8038683777359
 23
368.0493388712662
 33
0.0
  0
MTEXT
  5
239
330
227
100
AcDbEntity
  8
0
 62
     0
100
AcDbMText
 10
344.8038683777359
 20
376.1743388712662
 30
0.0
 40
15.0
 41
0.0
 46
0.0
 71
     5
 72
     1
  1
50
 73
     1
 44
1.0
  0
POINT
  5
23A
330
227
100
AcDbEntity
  8
Defpoints
 62
     0
100
AcDbPoint
 10
319.8038683777359
 20
369.9122168377694
 30
0.0
  0
POINT
  5
23B
330
227
100
AcDbEntity
  8
Defpoints
 62
     0
100
AcDbPoint
 10
369.8038683777359
 20
369.9122168377694
 30
0.0
  0
POINT
  5
23C
330
227
100
AcDbEntity
  8
Defpoints
 62
     0
100
AcDbPoint
 10
369.8038683777359
 20
368.0493388712662
 30
0.0
  0
ENDBLK
  5
232
330
227
100
AcDbEntity
  8
0
 62
     3
100
AcDbBlockEnd
  0
ENDSEC
  0
SECTION
  2
ENTITIES
  0
LINE
  5
129
102
{ACAD_REACTORS
330
225
102
}
330
1F
100
AcDbEntity
  8
0
 62
     2
100
AcDbLine
 10
71.80386837773584
 20
198.2949233329236
 30
0.0
 11
317.8038683777359
 21
198.2949233329236
 31
0.0
  0
LINE
  5
12A
330
1F
100
AcDbEntity
  8
0
 62
     2
100
AcDbLine
 10
319.8038683777359
 20
198.2949233329236
 30
0.0
 11
319.8038683777359
 21
388.2949233329236
 31
0.0
  0
LINE
  5
12B
102
{ACAD_REACTORS
330
225
102
}
330
1F
100
AcDbEntity
  8
0
 62
     2
100
AcDbLine
 10
317.8038683777359
 20
388.2949233329236
 30
0.0
 11
71.80386837773584
 21
388.2949233329236
 31
0.0
  0
LINE
  5
12C
102
{ACAD_REACTORS
330
20D
102
}
330
1F
100
AcDbEntity
  8
0
 62
     2
100
AcDbLine
 10
69.80386837773585
 20
388.2949233329236
 30
0.0
 11
69.80386837773585
 21
198.2949233329236
 31
0.0
  0
LINE
  5
12F
330
1F
100
AcDbEntity
  8
0
 62
     2
100
AcDbLine
 10
19.80386837773585
 20
388.2949233329236
 30
0.0
 11
19.80386837773585
 21
198.2949233329236
 31
0.0
  0
LINE
  5
130
330
1F
100
AcDbEntity
  8
0
 62
     1
100
AcDbLine
 10
71.80386837773581
 20
148.2949233329236
 30
0.0
 11
317.8038683777359
 21
148.2949233329236
 31
0.0
  0
LINE
  5
131
330
1F
100
AcDbEntity
  8
0
 62
     2
100
AcDbLine
 10
319.8038683777359
 20
438.2949233329236
 30
0.0
 11
69.80386837773585
 21
438.2949233329236
 31
0.0
  0
LINE
  5
132
330
1F
100
AcDbEntity
  8
0
 62
     2
100
AcDbLine
 10
319.8038683777359
 20
629.2949233329236
 30
0.0
 11
69.80386837773585
 21
629.2949233329236
 31
0.0
  0
LINE
  5
133
330
1F
100
AcDbEntity
  8
0
 62
     1
100
AcDbLine
 10
317.8038683777359
 20
679.2949233329236
 30
0.0
 11
71.80386837773584
 21
679.2949233329236
 31
0.0
  0
LINE
  5
135
330
1F
100
AcDbEntity
  8
0
 62
     1
100
AcDbLine
 10
69.80386837773585
 20
438.2949233329236
 30
0.0
 11
69.80386837773585
 21
629.2949233329236
 31
0.0
  0
LINE
  5
137
330
1F
100
AcDbEntity
  8
0
 62
     2
100
AcDbLine
 10
71.80386837773584
 20
388.2949233329236
 30
0.0
 11
71.80386837773584
 21
435.2949233329236
 31
0.0
  0
LINE
  5
138
330
1F
100
AcDbEntity
  8
0
 62
     1
100
AcDbLine
 10
69.80386837773585
 20
388.2949233329236
 30
0.0
 11
19.80386837773585
 21
388.2949233329236
 31
0.0
  0
LINE
  5
139
330
1F
100
AcDbEntity
  8
0
 62
     1
100
AcDbLine
 10
69.80386837773585
 20
391.2949233329237
 30
0.0
 11
19.80386837773585
 21
391.2949233329237
 31
0.0
  0
LINE
  5
13A
330
1F
100
AcDbEntity
  8
0
 62
     1
100
AcDbLine
 10
69.80386837773585
 20
391.2949233329237
 30
0.0
 11
71.80386837773584
 21
388.2949233329236
 31
0.0
  0
LINE
  5
13C
330
1F
100
AcDbEntity
  8
0
 62
     1
100
AcDbLine
 10
19.80386837773585
 20
391.2949233329237
 30
0.0
 11
19.80386837773585
 21
435.2949233329236
 31
0.0
  0
LINE
  5
13D
330
1F
100
AcDbEntity
  8
0
 62
     1
100
AcDbLine
 10
69.80386837773585
 20
435.2949233329236
 30
0.0
 11
19.80386837773585
 21
435.2949233329236
 31
0.0
  0
LINE
  5
13E
330
1F
100
AcDbEntity
  8
0
 62
     1
100
AcDbLine
 10
69.80386837773585
 20
435.2949233329236
 30
0.0
 11
71.80386837773584
 21
435.2949233329236
 31
0.0
  0
LINE
  5
13F
330
1F
100
AcDbEntity
  8
0
 62
     1
100
AcDbLine
 10
71.80386837773584
 20
435.2949233329236
 30
0.0
 11
69.80386837773585
 21
438.2949233329236
 31
0.0
  0
LINE
  5
140
330
1F
100
AcDbEntity
  8
0
 62
     1
100
AcDbLine
 10
19.80386837773585
 20
195.2949233329236
 30
0.0
 11
19.80386837773585
 21
149.7949233329236
 31
0.0
  0
LINE
  5
141
330
1F
100
AcDbEntity
  8
0
 62
     2
100
AcDbLine
 10
71.80386837773584
 20
198.2949233329236
 30
0.0
 11
71.80386837773584
 21
148.2949233329236
 31
0.0
  0
LINE
  5
142
330
1F
100
AcDbEntity
  8
0
 62
     1
100
AcDbLine
 10
69.80386837773585
 20
198.2949233329236
 30
0.0
 11
19.80386837773585
 21
198.2949233329236
 31
0.0
  0
LINE
  5
143
330
1F
100
AcDbEntity
  8
0
 62
     1
100
AcDbLine
 10
69.80386837773585
 20
195.2949233329236
 30
0.0
 11
19.80386837773585
 21
195.2949233329236
 31
0.0
  0
LINE
  5
144
330
1F
100
AcDbEntity
  8
0
 62
     1
100
AcDbLine
 10
69.80386837773585
 20
195.2949233329236
 30
0.0
 11
71.80386837773584
 21
198.2949233329236
 31
0.0
  0
LINE
  5
148
330
1F
100
AcDbEntity
  8
0
 62
     1
100
AcDbLine
 10
69.80386837773585
 20
149.7949233329236
 30
0.0
 11
71.80386837773584
 21
148.2949233329236
 31
0.0
  0
LINE
  5
14A
330
1F
100
AcDbEntity
  8
0
 62
     1
100
AcDbLine
 10
69.80386837773585
 20
149.7949233329236
 30
0.0
 11
19.80386837773585
 21
149.7949233329236
 31
0.0
  0
LINE
  5
154
102
{ACAD_REACTORS
330
20D
330
23D
102
}
330
1F
100
AcDbEntity
  8
0
 62
     2
100
AcDbLine
 10
319.8038683777359
 20
388.2949233329236
 30
0.0
 11
319.8038683777359
 21
198.2949233329236
 31
0.0
  0
LINE
  5
155
102
{ACAD_REACTORS
330
23D
102
}
330
1F
100
AcDbEntity
  8
0
 62
     2
100
AcDbLine
 10
369.8038683777359
 20
388.2949233329236
 30
0.0
 11
369.8038683777359
 21
198.2949233329236
 31
0.0
  0
LINE
  5
156
330
1F
100
AcDbEntity
  8
0
 62
     1
100
AcDbLine
 10
369.8038683777359
 20
391.2949233329237
 30
0.0
 11
369.8038683777359
 21
435.2949233329236
 31
0.0
  0
LINE
  5
157
330
1F
100
AcDbEntity
  8
0
 62
     2
100
AcDbLine
 10
317.8038683777359
 20
388.2949233329236
 30
0.0
 11
317.8038683777359
 21
435.2949233329236
 31
0.0
  0
LINE
  5
158
330
1F
100
AcDbEntity
  8
0
 62
     1
100
AcDbLine
 10
319.8038683777359
 20
388.2949233329236
 30
0.0
 11
369.8038683777359
 21
388.2949233329236
 31
0.0
  0
LINE
  5
159
330
1F
100
AcDbEntity
  8
0
 62
     1
100
AcDbLine
 10
319.8038683777359
 20
391.2949233329237
 30
0.0
 11
369.8038683777359
 21
391.2949233329237
 31
0.0
  0
LINE
  5
15A
330
1F
100
AcDbEntity
  8
0
 62
     1
100
AcDbLine
 10
319.8038683777359
 20
391.2949233329237
 30
0.0
 11
317.8038683777359
 21
388.2949233329236
 31
0.0
  0
LINE
  5
15B
330
1F
100
AcDbEntity
  8
0
 62
     1
100
AcDbLine
 10
319.8038683777359
 20
435.2949233329236
 30
0.0
 11
369.8038683777359
 21
435.2949233329236
 31
0.0
  0
LINE
  5
15C
330
1F
100
AcDbEntity
  8
0
 62
     1
100
AcDbLine
 10
319.8038683777359
 20
435.2949233329236
 30
0.0
 11
317.8038683777359
 21
435.2949233329236
 31
0.0
  0
LINE
  5
15D
330
1F
100
AcDbEntity
  8
0
 62
     1
100
AcDbLine
 10
317.8038683777359
 20
435.2949233329236
 30
0.0
 11
319.8038683777359
 21
438.2949233329236
 31
0.0
  0
LINE
  5
15E
330
1F
100
AcDbEntity
  8
0
 62
     1
100
AcDbLine
 10
369.8038683777359
 20
195.2949233329236
 30
0.0
 11
369.8038683777359
 21
149.7949233329236
 31
0.0
  0
LINE
  5
15F
330
1F
100
AcDbEntity
  8
0
 62
     2
100
AcDbLine
 10
317.8038683777359
 20
198.2949233329236
 30
0.0
 11
317.8038683777359
 21
148.2949233329236
 31
0.0
  0
LINE
  5
160
330
1F
100
AcDbEntity
  8
0
 62
     1
100
AcDbLine
 10
319.8038683777359
 20
198.2949233329236
 30
0.0
 11
369.8038683777359
 21
198.2949233329236
 31
0.0
  0
LINE
  5
161
330
1F
100
AcDbEntity
  8
0
 62
     1
100
AcDbLine
 10
319.8038683777359
 20
195.2949233329236
 30
0.0
 11
369.8038683777359
 21
195.2949233329236
 31
0.0
  0
LINE
  5
162
330
1F
100
AcDbEntity
  8
0
 62
     1
100
AcDbLine
 10
319.8038683777359
 20
195.2949233329236
 30
0.0
 11
317.8038683777359
 21
198.2949233329236
 31
0.0
  0
LINE
  5
163
330
1F
100
AcDbEntity
  8
0
 62
     1
100
AcDbLine
 10
319.8038683777359
 20
149.7949233329236
 30
0.0
 11
369.8038683777359
 21
149.7949233329236
 31
0.0
  0
LINE
  5
164
330
1F
100
AcDbEntity
  8
0
 62
     1
100
AcDbLine
 10
319.8038683777359
 20
149.7949233329236
 30
0.0
 11
317.8038683777359
 21
148.2949233329236
 31
0.0
  0
LINE
  5
169
330
1F
100
AcDbEntity
  8
0
 62
     1
100
AcDbLine
 10
69.80386837773585
 20
631.2949233329236
 30
0.0
 11
71.80386837773584
 21
631.2949233329236
 31
0.0
  0
LINE
  5
16A
330
1F
100
AcDbEntity
  8
0
 62
     1
100
AcDbLine
 10
71.80386837773584
 20
631.2949233329236
 30
0.0
 11
69.80386837773585
 21
629.2949233329236
 31
0.0
  0
LINE
  5
16B
330
1F
100
AcDbEntity
  8
0
 62
     2
100
AcDbLine
 10
71.80386837773584
 20
631.2949233329236
 30
0.0
 11
71.80386837773584
 21
679.2949233329236
 31
0.0
  0
LINE
  5
16C
330
1F
100
AcDbEntity
  8
0
 62
     1
100
AcDbLine
 10
34.80386837773585
 20
636.2949233329236
 30
0.0
 11
34.80386837773585
 21
652.5316839145189
 31
0.0
  0
LINE
  5
16D
330
1F
100
AcDbEntity
  8
0
 62
     1
100
AcDbLine
 10
69.80386837773585
 20
631.2949233329236
 30
0.0
 11
39.80386837773585
 21
631.2949233329236
 31
0.0
  0
ARC
  5
178
330
1F
100
AcDbEntity
  8
0
 62
     1
100
AcDbCircle
 10
54.80386837773584
 20
652.5316839145189
 30
0.0
 40
20.0
100
AcDbArc
 50
125.2344179845812
 51
180.0
  0
ARC
  5
179
330
1F
100
AcDbEntity
  8
0
 62
     1
100
AcDbCircle
 10
39.80386837773585
 20
636.2949233329236
 30
0.0
 40
5.0
100
AcDbArc
 50
180.0
 51
270.0
  0
LINE
  5
17A
330
1F
100
AcDbEntity
  8
0
 62
     1
100
AcDbLine
 10
71.80386837773584
 20
679.2949233329236
 30
0.0
 11
58.38144833228669
 21
675.8541908348172
 31
0.0
  0
ARC
  5
17B
330
1F
100
AcDbEntity
  8
0
 62
     1
100
AcDbCircle
 10
69.80386837773585
 20
631.2949233329236
 30
0.0
 40
46.0
100
AcDbArc
 50
104.3777349942477
 51
125.2344179845812
  0
LINE
  5
17C
330
1F
100
AcDbEntity
  8
0
 62
     1
100
AcDbLine
 10
319.8038683777359
 20
438.2949233329236
 30
0.0
 11
319.8038683777359
 21
629.2949233329236
 31
0.0
  0
LINE
  5
17D
330
1F
100
AcDbEntity
  8
0
 62
     1
100
AcDbLine
 10
354.8038683777359
 20
636.2949233329236
 30
0.0
 11
354.8038683777359
 21
652.5316839145189
 31
0.0
  0
LINE
  5
17E
330
1F
100
AcDbEntity
  8
0
 62
     2
100
AcDbLine
 10
317.8038683777359
 20
631.2949233329236
 30
0.0
 11
317.8038683777359
 21
679.2949233329236
 31
0.0
  0
LINE
  5
17F
330
1F
100
AcDbEntity
  8
0
 62
     1
100
AcDbLine
 10
319.8038683777359
 20
631.2949233329236
 30
0.0
 11
317.8038683777359
 21
631.2949233329236
 31
0.0
  0
LINE
  5
180
330
1F
100
AcDbEntity
  8
0
 62
     1
100
AcDbLine
 10
317.8038683777359
 20
631.2949233329236
 30
0.0
 11
319.8038683777359
 21
629.2949233329236
 31
0.0
  0
LINE
  5
181
330
1F
100
AcDbEntity
  8
0
 62
     1
100
AcDbLine
 10
319.8038683777359
 20
631.2949233329236
 30
0.0
 11
349.8038683777358
 21
631.2949233329236
 31
0.0
  0
ARC
  5
182
330
1F
100
AcDbEntity
  8
0
 62
     1
100
AcDbCircle
 10
349.8038683777358
 20
636.2949233329236
 30
0.0
 40
5.0
100
AcDbArc
 50
270.0
 51
0.000000000000007
  0
ARC
  5
183
330
1F
100
AcDbEntity
  8
0
 62
     1
100
AcDbCircle
 10
319.8038683777359
 20
631.2949233329236
 30
0.0
 40
46.0
100
AcDbArc
 50
54.76558201541799
 51
75.62226500575161
  0
ARC
  5
184
330
1F
100
AcDbEntity
  8
0
 62
     1
100
AcDbCircle
 10
334.8038683777359
 20
652.5316839145189
 30
0.0
 40
20.0
100
AcDbArc
 50
0.000000000000007
 51
54.76558201541799
  0
LINE
  5
185
330
1F
100
AcDbEntity
  8
0
 62
     1
100
AcDbLine
 10
317.8038683777359
 20
679.2949233329236
 30
0.0
 11
331.226288423185
 21
675.8541908348172
 31
0.0
  0
LINE
  5
188
330
1F
100
AcDbEntity
  8
0
 62
     2
100
AcDbLine
 10
14.80386837773585
 20
386.7949233329237
 30
0.0
 11
14.80386837773585
 21
199.7949233329236
 31
0.0
  0
LINE
  5
189
330
1F
100
AcDbEntity
  8
0
 62
     1
100
AcDbLine
 10
-33.69613162226415
 20
386.7949233329237
 30
0.0
 11
-33.69613162226415
 21
358.2949233329236
 31
0.0
  0
LINE
  5
18A
330
1F
100
AcDbEntity
  8
0
 62
     1
100
AcDbLine
 10
-36.69613162226415
 20
357.2949233329236
 30
0.0
 11
-36.69613162226415
 21
319.2949233329236
 31
0.0
  0
LINE
  5
18C
330
1F
100
AcDbEntity
  8
0
 62
     1
100
AcDbLine
 10
14.80386837773585
 20
386.7949233329237
 30
0.0
 11
-33.69613162226415
 21
386.7949233329237
 31
0.0
  0
LINE
  5
18D
330
1F
100
AcDbEntity
  8
0
 62
     1
100
AcDbLine
 10
19.80386837773585
 20
388.2949233329236
 30
0.0
 11
14.80386837773585
 21
386.7949233329237
 31
0.0
  0
LINE
  5
18E
330
1F
100
AcDbEntity
  8
0
 62
     1
100
AcDbLine
 10
14.80386837773585
 20
199.7949233329236
 30
0.0
 11
-33.69613162226415
 21
199.7949233329236
 31
0.0
  0
LINE
  5
18F
330
1F
100
AcDbEntity
  8
0
 62
     1
100
AcDbLine
 10
19.80386837773585
 20
198.2949233329236
 30
0.0
 11
14.80386837773585
 21
199.7949233329236
 31
0.0
  0
LINE
  5
195
330
1F
100
AcDbEntity
  8
0
 62
     1
100
AcDbLine
 10
74.80386837773584
 20
358.2949233329236
 30
0.0
 11
74.80386837773584
 21
318.2949233329237
 31
0.0
  0
LINE
  5
196
330
1F
100
AcDbEntity
  8
0
 62
     1
100
AcDbLine
 10
74.80386837773584
 20
268.2949233329237
 30
0.0
 11
74.80386837773584
 21
228.2949233329237
 31
0.0
  0
LINE
  5
19B
330
1F
100
AcDbEntity
  8
0
 62
     1
100
AcDbLine
 10
74.80386837773584
 20
358.2949233329236
 30
0.0
 11
69.80386837773585
 21
358.2949233329236
 31
0.0
  0
LINE
  5
19C
330
1F
100
AcDbEntity
  8
0
 62
     1
100
AcDbLine
 10
74.80386837773584
 20
318.2949233329237
 30
0.0
 11
69.80386837773585
 21
318.2949233329237
 31
0.0
  0
LINE
  5
19D
330
1F
100
AcDbEntity
  8
0
 62
     1
100
AcDbLine
 10
74.80386837773584
 20
268.2949233329237
 30
0.0
 11
69.80386837773585
 21
268.2949233329237
 31
0.0
  0
LINE
  5
19E
330
1F
100
AcDbEntity
  8
0
 62
     1
100
AcDbLine
 10
74.80386837773584
 20
228.2949233329237
 30
0.0
 11
69.80386837773585
 21
228.2949233329237
 31
0.0
  0
LINE
  5
1A1
330
1F
100
AcDbEntity
  8
0
 62
     1
100
AcDbLine
 10
-33.69613162226415
 20
358.2949233329236
 30
0.0
 11
-36.69613162226415
 21
357.2949233329236
 31
0.0
  0
LINE
  5
1A2
330
1F
100
AcDbEntity
  8
0
 62
     1
100
AcDbLine
 10
-33.69613162226415
 20
318.2949233329237
 30
0.0
 11
-36.69613162226415
 21
319.2949233329236
 31
0.0
  0
LINE
  5
1A3
330
1F
100
AcDbEntity
  8
0
 62
     1
100
AcDbLine
 10
-33.69613162226415
 20
228.2949233329237
 30
0.0
 11
-36.69613162226415
 21
229.2949233329236
 31
0.0
  0
LINE
  5
1A4
330
1F
100
AcDbEntity
  8
0
 62
     1
100
AcDbLine
 10
-33.69613162226415
 20
268.2949233329237
 30
0.0
 11
-36.69613162226415
 21
267.2949233329236
 31
0.0
  0
LINE
  5
1A5
330
1F
100
AcDbEntity
  8
0
 62
     1
100
AcDbLine
 10
-36.69613162226415
 20
267.2949233329236
 30
0.0
 11
-36.69613162226415
 21
229.2949233329236
 31
0.0
  0
LINE
  5
1A6
330
1F
100
AcDbEntity
  8
0
 62
     1
100
AcDbLine
 10
-33.69613162226415
 20
318.2949233329237
 30
0.0
 11
-33.69613162226415
 21
268.2949233329237
 31
0.0
  0
LINE
  5
1A7
330
1F
100
AcDbEntity
  8
0
 62
     1
100
AcDbLine
 10
-33.69613162226415
 20
228.2949233329237
 30
0.0
 11
-33.69613162226415
 21
199.7949233329236
 31
0.0
  0
LINE
  5
1A8
330
1F
100
AcDbEntity
  8
0
 62
     2
100
AcDbLine
 10
374.8038683777358
 20
386.7949233329237
 30
0.0
 11
374.8038683777358
 21
199.7949233329236
 31
0.0
  0
LINE
  5
1A9
330
1F
100
AcDbEntity
  8
0
 62
     1
100
AcDbLine
 10
423.3038683777358
 20
386.7949233329237
 30
0.0
 11
423.3038683777358
 21
358.2949233329236
 31
0.0
  0
LINE
  5
1AA
330
1F
100
AcDbEntity
  8
0
 62
     1
100
AcDbLine
 10
423.3038683777358
 20
318.2949233329237
 30
0.0
 11
423.3038683777358
 21
268.2949233329237
 31
0.0
  0
LINE
  5
1AB
330
1F
100
AcDbEntity
  8
0
 62
     1
100
AcDbLine
 10
423.3038683777358
 20
228.2949233329237
 30
0.0
 11
423.3038683777358
 21
199.7949233329236
 31
0.0
  0
LINE
  5
1AC
330
1F
100
AcDbEntity
  8
0
 62
     1
100
AcDbLine
 10
426.1038683777358
 20
357.2949233329236
 30
0.0
 11
426.1038683777358
 21
319.2949233329236
 31
0.0
  0
LINE
  5
1AD
330
1F
100
AcDbEntity
  8
0
 62
     1
100
AcDbLine
 10
426.3038683777358
 20
267.2949233329236
 30
0.0
 11
426.3038683777358
 21
229.2949233329236
 31
0.0
  0
LINE
  5
1AE
330
1F
100
AcDbEntity
  8
0
 62
     1
100
AcDbLine
 10
374.8038683777358
 20
386.7949233329237
 30
0.0
 11
423.3038683777358
 21
386.7949233329237
 31
0.0
  0
LINE
  5
1AF
330
1F
100
AcDbEntity
  8
0
 62
     1
100
AcDbLine
 10
369.8038683777359
 20
388.2949233329236
 30
0.0
 11
374.8038683777358
 21
386.7949233329237
 31
0.0
  0
LINE
  5
1B0
330
1F
100
AcDbEntity
  8
0
 62
     1
100
AcDbLine
 10
374.8038683777358
 20
199.7949233329236
 30
0.0
 11
423.3038683777358
 21
199.7949233329236
 31
0.0
  0
LINE
  5
1B1
330
1F
100
AcDbEntity
  8
0
 62
     1
100
AcDbLine
 10
369.8038683777359
 20
198.2949233329236
 30
0.0
 11
374.8038683777358
 21
199.7949233329236
 31
0.0
  0
LINE
  5
1B2
330
1F
100
AcDbEntity
  8
0
 62
     1
100
AcDbLine
 10
423.3038683777358
 20
358.2949233329236
 30
0.0
 11
426.1038683777358
 21
357.2949233329236
 31
0.0
  0
LINE
  5
1B3
330
1F
100
AcDbEntity
  8
0
 62
     1
100
AcDbLine
 10
423.3038683777358
 20
318.2949233329237
 30
0.0
 11
426.1038683777358
 21
319.2949233329236
 31
0.0
  0
LINE
  5
1B4
330
1F
100
AcDbEntity
  8
0
 62
     1
100
AcDbLine
 10
423.3038683777358
 20
228.2949233329237
 30
0.0
 11
426.3038683777358
 21
229.2949233329236
 31
0.0
  0
LINE
  5
1B5
330
1F
100
AcDbEntity
  8
0
 62
     1
100
AcDbLine
 10
423.3038683777358
 20
268.2949233329237
 30
0.0
 11
426.3038683777358
 21
267.2949233329236
 31
0.0
  0
LINE
  5
1B6
330
1F
100
AcDbEntity
  8
0
 62
     1
100
AcDbLine
 10
69.80386837773585
 20
358.2949233329236
 30
0.0
 11
69.80386837773585
 21
318.2949233329237
 31
0.0
  0
LINE
  5
1B7
330
1F
100
AcDbEntity
  8
0
 62
     1
100
AcDbLine
 10
69.80386837773585
 20
268.2949233329237
 30
0.0
 11
69.80386837773585
 21
228.2949233329237
 31
0.0
  0
LINE
  5
1B8
330
1F
100
AcDbEntity
  8
0
 62
     1
100
AcDbLine
 10
314.8038683777358
 20
358.2949233329236
 30
0.0
 11
314.8038683777358
 21
318.2949233329237
 31
0.0
  0
LINE
  5
1B9
330
1F
100
AcDbEntity
  8
0
 62
     1
100
AcDbLine
 10
314.8038683777358
 20
268.2949233329237
 30
0.0
 11
314.8038683777358
 21
228.2949233329237
 31
0.0
  0
LINE
  5
1BA
330
1F
100
AcDbEntity
  8
0
 62
     1
100
AcDbLine
 10
314.8038683777358
 20
358.2949233329236
 30
0.0
 11
319.8038683777359
 21
358.2949233329236
 31
0.0
  0
LINE
  5
1BB
330
1F
100
AcDbEntity
  8
0
 62
     1
100
AcDbLine
 10
314.8038683777358
 20
318.2949233329237
 30
0.0
 11
319.8038683777359
 21
318.2949233329237
 31
0.0
  0
LINE
  5
1BC
330
1F
100
AcDbEntity
  8
0
 62
     1
100
AcDbLine
 10
314.8038683777358
 20
268.2949233329237
 30
0.0
 11
319.8038683777359
 21
268.2949233329237
 31
0.0
  0
LINE
  5
1BD
330
1F
100
AcDbEntity
  8
0
 62
     1
100
AcDbLine
 10
314.8038683777358
 20
228.2949233329237
 30
0.0
 11
319.8038683777359
 21
228.2949233329237
 31
0.0
  0
LINE
  5
1BE
330
1F
100
AcDbEntity
  8
0
 62
     1
100
AcDbLine
 10
319.8038683777359
 20
358.2949233329236
 30
0.0
 11
319.8038683777359
 21
318.2949233329237
 31
0.0
  0
LINE
  5
1BF
330
1F
100
AcDbEntity
  8
0
 62
     1
100
AcDbLine
 10
319.8038683777359
 20
268.2949233329237
 30
0.0
 11
319.8038683777359
 21
228.2949233329237
 31
0.0
  0
LINE
  5
1C0
330
1F
100
AcDbEntity
  8
0
 62
     1
100
AcDbLine
 10
69.80386837773585
 20
198.2949233329236
 30
0.0
 11
71.80386837773584
 21
198.2949233329236
 31
0.0
  0
LINE
  5
1C1
330
1F
100
AcDbEntity
  8
0
 62
     1
100
AcDbLine
 10
317.8038683777359
 20
198.2949233329236
 30
0.0
 11
319.8038683777359
 21
198.2949233329236
 31
0.0
  0
LINE
  5
1C2
330
1F
100
AcDbEntity
  8
0
 62
     1
100
AcDbLine
 10
319.8038683777359
 20
388.2949233329236
 30
0.0
 11
317.8038683777359
 21
388.2949233329236
 31
0.0
  0
LINE
  5
1C3
330
1F
100
AcDbEntity
  8
0
 62
     1
100
AcDbLine
 10
71.80386837773584
 20
388.2949233329236
 30
0.0
 11
69.80386837773585
 21
388.2949233329236
 31
0.0
  0
DIMENSION
  5
1F6
102
{ACAD_XDICTIONARY
360
203
102
}
102
{ACAD_REACTORS
330
20D
102
}
330
1F
100
AcDbEntity
  8
0
 62
     3
100
AcDbDimension
  2
*D2
 10
319.8038683777359
 20
283.0324003614737
 30
0.0
 11
194.8038683777358
 21
291.1574003614737
 31
0.0
 70
    32
 71
     5
 42
250.0
 73
     0
 74
     0
 75
     0
  3
ISO-25
100
AcDbAlignedDimension
 13
69.80386837773585
 23
293.2949233329237
 33
0.0
 14
319.8038683777359
 24
293.2949233329237
 34
0.0
100
AcDbRotatedDimension
  0
DIMENSION
  5
20E
102
{ACAD_XDICTIONARY
360
21B
102
}
102
{ACAD_REACTORS
330
225
102
}
330
1F
100
AcDbEntity
  8
0
 62
     3
100
AcDbDimension
  2
*D3
 10
273.6635893545785
 20
198.2949233329236
 30
0.0
 11
265.5385893545785
 21
293.2949233329237
 31
0.0
 70
    32
 71
     5
 42
190.0
 73
     0
 74
     0
 75
     0
  3
ISO-25
100
AcDbAlignedDimension
 13
273.1221545468811
 23
388.2949233329236
 33
0.0
 14
273.1221545468811
 24
198.2949233329236
 34
0.0
 50
90.0
100
AcDbRotatedDimension
  0
DIMENSION
  5
226
102
{ACAD_XDICTIONARY
360
233
102
}
102
{ACAD_REACTORS
330
23D
102
}
330
1F
100
AcDbEntity
  8
0
 62
     3
100
AcDbDimension
  2
*D4
 10
369.8038683777359
 20
368.0493388712662
 30
0.0
 11
344.8038683777359
 21
376.1743388712662
 31
0.0
 70
    32
 71
     5
 42
50.00000000000007
 73
     0
 74
     0
 75
     0
  3
ISO-25
100
AcDbAlignedDimension
 13
319.8038683777359
 23
369.9122168377694
 33
0.0
 14
369.8038683777359
 24
369.9122168377694
 34
0.0
100
AcDbRotatedDimension
  0
ENDSEC
  0
SECTION
  2
OBJECTS
  0
DICTIONARY
  5
C
330
0
100
AcDbDictionary
281
     1
  3
ACAD_COLOR
350
6B
  3
ACAD_GROUP
350
D
  3
ACAD_LAYOUT
350
1A
  3
ACAD_MATERIAL
350
6A
  3
ACAD_MLINESTYLE
350
17
  3
ACAD_PLOTSETTINGS
350
19
  3
ACAD_PLOTSTYLENAME
350
E
  3
ACAD_TABLESTYLE
350
7E
  3
ACAD_VISUALSTYLE
350
F0
  3
AcDbVariableDictionary
350
5E
  0
DICTIONARY
  5
12D
330
1F
100
AcDbDictionary
280
     1
281
     1
  3
ACAD_SORTENTS
360
12E
  0
DICTIONARY
  5
203
330
1F6
100
AcDbDictionary
280
     1
281
     1
  3
ACAD_DIMASSOC
360
20D
  0
DICTIONARY
  5
21B
330
20E
100
AcDbDictionary
280
     1
281
     1
  3
ACAD_DIMASSOC
360
225
  0
DICTIONARY
  5
233
330
226
100
AcDbDictionary
280
     1
281
     1
  3
ACAD_DIMASSOC
360
23D
  0
DICTIONARY
  5
6B
102
{ACAD_REACTORS
330
C
102
}
330
C
100
AcDbDictionary
281
     1
  0
DICTIONARY
  5
D
102
{ACAD_REACTORS
330
C
102
}
330
C
100
AcDbDictionary
281
     1
  0
DICTIONARY
  5
1A
102
{ACAD_REACTORS
330
C
102
}
330
C
100
AcDbDictionary
281
     1
  3
Model
350
22
  3
布局1
350
D3
  3
布局2
350
D7
  0
DICTIONARY
  5
6A
102
{ACAD_REACTORS
330
C
102
}
330
C
100
AcDbDictionary
281
     1
  3
ByBlock
350
EE
  3
ByLayer
350
ED
  3
Global
350
EF
  0
DICTIONARY
  5
17
102
{ACAD_REACTORS
330
C
102
}
330
C
100
AcDbDictionary
281
     1
  3
Standard
350
18
  0
DICTIONARY
  5
19
102
{ACAD_REACTORS
330
C
102
}
330
C
100
AcDbDictionary
281
     1
  0
ACDBDICTIONARYWDFLT
  5
E
102
{ACAD_REACTORS
330
C
102
}
330
C
100
AcDbDictionary
281
     1
  3
Normal
350
F
100
AcDbDictionaryWithDefault
340
F
  0
DICTIONARY
  5
7E
102
{ACAD_REACTORS
330
C
102
}
330
C
100
AcDbDictionary
281
     1
  3
Standard
350
7F
  0
DICTIONARY
  5
F0
102
{ACAD_REACTORS
330
C
102
}
330
C
100
AcDbDictionary
281
     1
  3
2dWireframe
350
F6
  3
3D Hidden
350
F8
  3
3dWireframe
350
F7
  3
Basic
350
F5
  3
Brighten
350
FC
  3
ColorChange
350
100
  3
Conceptual
350
F9
  3
Dim
350
FB
  3
Facepattern
350
FF
  3
Flat
350
F1
  3
FlatWithEdges
350
F2
  3
Gouraud
350
F3
  3
GouraudWithEdges
350
F4
  3
Linepattern
350
FE
  3
Realistic
350
FA
  3
Thicken
350
FD
  0
DICTIONARY
  5
5E
102
{ACAD_REACTORS
330
C
102
}
330
C
100
AcDbDictionary
281
     1
  3
CTABLESTYLE
350
84
  3
DIMASSOC
350
5F
  3
HIDETEXT
350
63
  0
SORTENTSTABLE
  5
12E
102
{ACAD_REACTORS
330
12D
102
}
330
12D
100
AcDbSortentsTable
330
1F
331
135
  5
143
331
133
  5
131
331
132
  5
130
331
131
  5
12F
331
15F
  5
16F
331
130
  5
12A
331
15E
  5
16D
331
15D
  5
16C
331
15C
  5
16B
331
15B
  5
16A
331
15A
  5
168
331
159
  5
164
331
158
  5
163
331
157
  5
162
331
156
  5
161
331
185
  5
191
331
184
  5
18F
331
155
  5
160
331
154
  5
15F
331
183
  5
18E
331
182
  5
18D
331
181
  5
18C
331
180
  5
18A
331
17F
  5
189
331
17E
  5
188
331
17D
  5
185
331
17C
  5
184
331
17B
  5
181
331
144
  5
15C
331
17A
  5
183
331
143
  5
15B
331
179
  5
17D
331
142
  5
15A
331
178
  5
182
331
141
  5
159
331
19E
  5
1A3
331
140
  5
158
331
13F
  5
157
331
19D
  5
1A2
331
19C
  5
1A1
331
16D
  5
17C
331
13E
  5
156
331
13D
  5
155
331
14A
  5
15D
331
19B
  5
1A0
331
16C
  5
144
331
16B
  5
148
331
13C
  5
141
331
148
  5
15E
331
16A
  5
17B
331
169
  5
17A
331
13A
  5
154
331
139
  5
152
331
138
  5
14A
331
196
  5
136
331
195
  5
135
331
164
  5
179
331
163
  5
177
331
162
  5
176
331
161
  5
175
331
18F
  5
198
331
160
  5
173
331
18E
  5
196
331
18D
  5
194
331
18C
  5
192
331
18A
  5
13F
331
189
  5
13A
331
188
  5
138
331
1A7
  5
13D
331
1A6
  5
13B
331
1A5
  5
140
331
1A4
  5
1A7
331
1A3
  5
1A6
331
12F
  5
137
331
1A2
  5
1A5
331
1A1
  5
1A4
331
12C
  5
133
331
12B
  5
12C
331
12A
  5
12B
331
129
  5
129
331
137
  5
142
  0
DIMASSOC
  5
20D
102
{ACAD_REACTORS
330
203
102
}
330
203
100
AcDbDimAssoc
330
1F6
 90
        3
 70
     0
 71
     0
  1
AcDbOsnapPointRef
 72
     2
331
12C
 73
     2
 91
        0
 40
0.5
 10
0.0
 20
0.0
 30
0.0
 75
     0
  1
AcDbOsnapPointRef
 72
     2
331
154
 73
     2
 91
        0
 40
0.5
 10
0.0
 20
0.0
 30
0.0
 75
     0
  0
DIMASSOC
  5
225
102
{ACAD_REACTORS
330
21B
102
}
330
21B
100
AcDbDimAssoc
330
20E
 90
        3
 70
     0
 71
     0
  1
AcDbOsnapPointRef
 72
    10
331
12B
 73
     2
 91
        0
 40
0.1816329830522553
 10
0.0
 20
0.0
 30
0.0
 75
     0
  1
AcDbOsnapPointRef
 72
     8
331
129
 73
     2
 91
        0
 40
0.8183670169477446
 10
0.0
 20
0.0
 30
0.0
 75
     1
  1
AcDbOsnapPointRef
 72
    10
331
12B
 73
     2
 91
        0
 40
0.1816329830522553
 10
0.0
 20
0.0
 30
0.0
 75
     0
  0
DIMASSOC
  5
23D
102
{ACAD_REACTORS
330
233
102
}
330
233
100
AcDbDimAssoc
330
226
 90
        3
 70
     0
 71
     0
  1
AcDbOsnapPointRef
 72
    10
331
154
 73
     2
 91
        0
 40
0.0967510868166013
 10
0.0
 20
0.0
 30
0.0
 75
     0
  1
AcDbOsnapPointRef
 72
     8
331
155
 73
     2
 91
        0
 40
0.0967510868166013
 10
0.0
 20
0.0
 30
0.0
 75
     1
  1
AcDbOsnapPointRef
 72
    10
331
154
 73
     2
 91
        0
 40
0.0967510868166013
 10
0.0
 20
0.0
 30
0.0
 75
     0
  0
LAYOUT
  5
22
102
{ACAD_REACTORS
330
1A
102
}
330
1A
100
AcDbPlotSettings
  1

  2
none_device
  4
ISO_A4_(210.00_x_297.00_MM)
  6

 40
7.5
 41
20.0
 42
7.5
 43
20.0
 44
210.0
 45
297.0
 46
11.54999923706054
 47
-13.65000009536743
 48
0.0
 49
0.0
140
0.0
141
0.0
142
1.0
143
8.704084754739808
 70
 11952
 72
     1
 73
     0
 74
     0
  7

 75
     0
147
0.1148885871608098
 76
     0
 77
     2
 78
   300
148
0.0
149
0.0
100
AcDbLayout
  1
Model
 70
     1
 71
     0
 10
0.0
 20
0.0
 11
12.0
 21
9.0
 12
0.0
 22
0.0
 32
0.0
 14
0.0
 24
0.0
 34
0.0
 15
0.0
 25
0.0
 35
0.0
146
0.0
 13
0.0
 23
0.0
 33
0.0
 16
1.0
 26
0.0
 36
0.0
 17
0.0
 27
1.0
 37
0.0
 76
     0
330
1F
331
EB
1001
ACAD_PSEXT
1000
None
1000
None
1000
Not applicable
1000
The layout will not be plotted unless a new plotter configuration name is selected.
1070
     0
  0
LAYOUT
  5
D3
102
{ACAD_REACTORS
330
1A
102
}
330
1A
100
AcDbPlotSettings
  1

  2
C:\Documents and Settings\basas\Application Data\Autodesk\AutoCAD 2005\R16.1\enu\plotters\Default Windows System Printer.pc3
  4

  6

 40
0.0
 41
0.0
 42
0.0
 43
0.0
 44
0.0
 45
0.0
 46
0.0
 47
0.0
 48
0.0
 49
0.0
140
0.0
141
0.0
142
1.0
143
1.0
 70
   688
 72
     0
 73
     0
 74
     5
  7

 75
    16
147
1.0
 76
     0
 77
     2
 78
   300
148
0.0
149
0.0
100
AcDbLayout
  1
布局1
 70
     1
 71
     1
 10
0.0
 20
0.0
 11
12.0
 21
9.0
 12
0.0
 22
0.0
 32
0.0
 14
0.0
 24
0.0
 34
0.0
 15
0.0
 25
0.0
 35
0.0
146
0.0
 13
0.0
 23
0.0
 33
0.0
 16
1.0
 26
0.0
 36
0.0
 17
0.0
 27
1.0
 37
0.0
 76
     0
330
D2
  0
LAYOUT
  5
D7
102
{ACAD_REACTORS
330
1A
102
}
330
1A
100
AcDbPlotSettings
  1

  2
C:\Documents and Settings\basas\Application Data\Autodesk\AutoCAD 2005\R16.1\enu\plotters\Default Windows System Printer.pc3
  4

  6

 40
0.0
 41
0.0
 42
0.0
 43
0.0
 44
0.0
 45
0.0
 46
0.0
 47
0.0
 48
0.0
 49
0.0
140
0.0
141
0.0
142
1.0
143
1.0
 70
   688
 72
     0
 73
     0
 74
     5
  7

 75
    16
147
1.0
 76
     0
 77
     2
 78
   300
148
0.0
149
0.0
100
AcDbLayout
  1
布局2
 70
     1
 71
     2
 10
0.0
 20
0.0
 11
12.0
 21
9.0
 12
0.0
 22
0.0
 32
0.0
 14
0.0
 24
0.0
 34
0.0
 15
0.0
 25
0.0
 35
0.0
146
0.0
 13
0.0
 23
0.0
 33
0.0
 16
1.0
 26
0.0
 36
0.0
 17
0.0
 27
1.0
 37
0.0
 76
     0
330
D6
  0
MATERIAL
  5
EE
102
{ACAD_REACTORS
330
6A
102
}
330
6A
100
AcDbMaterial
  1
ByBlock
  0
MATERIAL
  5
ED
102
{ACAD_REACTORS
330
6A
102
}
330
6A
100
AcDbMaterial
  1
ByLayer
  0
MATERIAL
  5
EF
102
{ACAD_REACTORS
330
6A
102
}
330
6A
100
AcDbMaterial
  1
Global
  0
MLINESTYLE
  5
18
102
{ACAD_REACTORS
330
17
102
}
330
17
100
AcDbMlineStyle
  2
STANDARD
 70
     0
  3

 62
   256
 51
90.0
 52
90.0
 71
     2
 49
0.5
 62
   256
  6
BYLAYER
 49
-0.5
 62
   256
  6
BYLAYER
  0
ACDBPLACEHOLDER
  5
F
102
{ACAD_REACTORS
330
E
102
}
330
E
  0
TABLESTYLE
  5
7F
102
{ACAD_REACTORS
330
7E
102
}
330
7E
100
AcDbTableStyle
  3
Standard
 70
     0
 71
     0
 40
1.5
 41
1.5
280
     0
281
     0
  7
Standard
140
4.5
170
     2
 62
     0
 63
     7
283
     0
 90
      512
 91
        0
  1

274
    -2
284
     1
 64
     0
275
    -2
285
     1
 65
     0
276
    -2
286
     1
 66
     0
277
    -2
287
     1
 67
     0
278
    -2
288
     1
 68
     0
279
    -2
289
     1
 69
     0
  7
Standard
140
6.0
170
     5
 62
     0
 63
     7
283
     0
 90
      512
 91
        0
  1

274
    -2
284
     1
 64
     0
275
    -2
285
     1
 65
     0
276
    -2
286
     1
 66
     0
277
    -2
287
     1
 67
     0
278
    -2
288
     1
 68
     0
279
    -2
289
     1
 69
     0
  7
Standard
140
4.5
170
     5
 62
     0
 63
     7
283
     0
 90
      512
 91
        0
  1

274
    -2
284
     1
 64
     0
275
    -2
285
     1
 65
     0
276
    -2
286
     1
 66
     0
277
    -2
287
     1
 67
     0
278
    -2
288
     1
 68
     0
279
    -2
289
     1
 69
     0
  0
VISUALSTYLE
  5
F6
102
{ACAD_REACTORS
330
F0
102
}
330
F0
100
AcDbVisualStyle
  2
2dWireframe
 70
     4
 71
     0
 72
     2
 73
     1
 90
        0
 40
-0.6
 41
-30.0
 62
     5
 63
     7
421
 16777215
 74
     1
 91
        4
 64
     7
 65
   257
 75
     1
175
     1
 42
1.0
 92
        0
 66
   257
 43
1.0
 76
     1
 77
     6
 78
     2
 67
     7
 79
     5
170
     0
171
     0
290
     0
174
     0
 93
        1
 44
0.0
173
     0
291
     0
 45
0.0
  0
VISUALSTYLE
  5
F8
102
{ACAD_REACTORS
330
F0
102
}
330
F0
100
AcDbVisualStyle
  2
3D Hidden
 70
     6
 71
     1
 72
     2
 73
     2
 90
        0
 40
-0.6
 41
-30.0
 62
     5
 63
     7
421
 16777215
 74
     2
 91
        2
 64
     7
 65
   257
 75
     2
175
     1
 42
40.0
 92
        0
 66
   257
 43
1.0
 76
     1
 77
     6
 78
     2
 67
     7
 79
     3
170
     0
171
     0
290
     0
174
     0
 93
        1
 44
0.0
173
     0
291
     0
 45
0.0
  0
VISUALSTYLE
  5
F7
102
{ACAD_REACTORS
330
F0
102
}
330
F0
100
AcDbVisualStyle
  2
3dWireframe
 70
     5
 71
     0
 72
     2
 73
     1
 90
        0
 40
-0.6
 41
-30.0
 62
     5
 63
     7
421
 16777215
 74
     1
 91
        4
 64
     7
 65
   257
 75
     1
175
     1
 42
1.0
 92
        0
 66
   257
 43
1.0
 76
     1
 77
     6
 78
     2
 67
     7
 79
     5
170
     0
171
     0
290
     0
174
     0
 93
        1
 44
0.0
173
     0
291
     0
 45
0.0
  0
VISUALSTYLE
  5
F5
102
{ACAD_REACTORS
330
F0
102
}
330
F0
100
AcDbVisualStyle
  2
Basic
 70
     7
 71
     1
 72
     0
 73
     1
 90
        0
 40
-0.6
 41
-30.0
 62
     5
 63
     7
421
 16777215
 74
     0
 91
        4
 64
     7
 65
   257
 75
     1
175
     1
 42
1.0
 92
        8
 66
     7
 43
1.0
 76
     1
 77
     6
 78
     2
 67
     7
 79
     5
170
     0
171
     0
290
     0
174
     0
 93
        1
 44
0.0
173
     0
291
     1
 45
0.0
  0
VISUALSTYLE
  5
FC
102
{ACAD_REACTORS
330
F0
102
}
330
F0
100
AcDbVisualStyle
  2
Brighten
 70
    12
 71
     2
 72
     2
 73
     1
 90
        0
 40
-0.6
 41
-30.0
 62
     5
 63
     7
421
 16777215
 74
     1
 91
        4
 64
     7
 65
   257
 75
     1
175
     1
 42
1.0
 92
        8
 66
     7
 43
1.0
 76
     1
 77
     6
 78
     2
 67
     7
 79
     5
170
     0
171
     0
290
     0
174
     0
 93
        1
 44
50.0
173
     0
291
     1
 45
0.0
  0
VISUALSTYLE
  5
100
102
{ACAD_REACTORS
330
F0
102
}
330
F0
100
AcDbVisualStyle
  2
ColorChange
 70
    16
 71
     2
 72
     2
 73
     3
 90
        0
 40
-0.6
 41
-30.0
 62
     5
 63
     8
421
  8421504
 74
     1
 91
        4
 64
     7
 65
   257
 75
     1
175
     1
 42
1.0
 92
        8
 66
     8
424
  8421504
 43
1.0
 76
     1
 77
     6
 78
     2
 67
     7
 79
     5
170
     0
171
     0
290
     0
174
     0
 93
        1
 44
0.0
173
     0
291
     1
 45
0.0
  0
VISUALSTYLE
  5
F9
102
{ACAD_REACTORS
330
F0
102
}
330
F0
100
AcDbVisualStyle
  2
Conceptual
 70
     9
 71
     3
 72
     2
 73
     1
 90
        0
 40
-0.6
 41
-30.0
 62
     5
 63
     7
421
 16777215
 74
     2
 91
        2
 64
     7
 65
   257
 75
     1
175
     1
 42
40.0
 92
        8
 66
     7
 43
1.0
 76
     1
 77
     6
 78
     2
 67
     7
 79
     3
170
     0
171
     0
290
     0
174
     0
 93
        1
 44
0.0
173
     0
291
     0
 45
0.0
  0
VISUALSTYLE
  5
FB
102
{ACAD_REACTORS
330
F0
102
}
330
F0
100
AcDbVisualStyle
  2
Dim
 70
    11
 71
     2
 72
     2
 73
     1
 90
        0
 40
-0.6
 41
-30.0
 62
     5
 63
     7
421
 16777215
 74
     1
 91
        4
 64
     7
 65
   257
 75
     1
175
     1
 42
1.0
 92
        8
 66
     7
 43
1.0
 76
     1
 77
     6
 78
     2
 67
     7
 79
     5
170
     0
171
     0
290
     0
174
     0
 93
        1
 44
-50.0
173
     0
291
     1
 45
0.0
  0
VISUALSTYLE
  5
FF
102
{ACAD_REACTORS
330
F0
102
}
330
F0
100
AcDbVisualStyle
  2
Facepattern
 70
    15
 71
     2
 72
     2
 73
     1
 90
        0
 40
-0.6
 41
-30.0
 62
     5
 63
     7
421
 16777215
 74
     1
 91
        4
 64
     7
 65
   257
 75
     1
175
     1
 42
1.0
 92
        8
 66
     7
 43
1.0
 76
     1
 77
     6
 78
     2
 67
     7
 79
     5
170
     0
171
     0
290
     0
174
     0
 93
        1
 44
0.0
173
     0
291
     1
 45
0.0
  0
VISUALSTYLE
  5
F1
102
{ACAD_REACTORS
330
F0
102
}
330
F0
100
AcDbVisualStyle
  2
Flat
 70
     0
 71
     2
 72
     1
 73
     1
 90
        2
 40
-0.6
 41
30.0
 62
     5
 63
     7
421
 16777215
 74
     0
 91
        4
 64
     7
 65
   257
 75
     1
175
     1
 42
1.0
 92
        8
 66
     7
 43
1.0
 76
     1
 77
     6
 78
     2
 67
     7
 79
     5
170
     0
171
     0
290
     0
174
     0
 93
        1
 44
0.0
173
     0
291
     1
 45
0.0
  0
VISUALSTYLE
  5
F2
102
{ACAD_REACTORS
330
F0
102
}
330
F0
100
AcDbVisualStyle
  2
FlatWithEdges
 70
     1
 71
     2
 72
     1
 73
     1
 90
        2
 40
-0.6
 41
30.0
 62
     5
 63
     7
421
 16777215
 74
     1
 91
        4
 64
     7
 65
   257
 75
     1
175
     1
 42
1.0
 92
        0
 66
   257
 43
1.0
 76
     1
 77
     6
 78
     2
 67
     7
 79
     5
170
     0
171
     0
290
     0
174
     0
 93
        1
 44
0.0
173
     0
291
     1
 45
0.0
  0
VISUALSTYLE
  5
F3
102
{ACAD_REACTORS
330
F0
102
}
330
F0
100
AcDbVisualStyle
  2
Gouraud
 70
     2
 71
     2
 72
     2
 73
     1
 90
        2
 40
-0.6
 41
30.0
 62
     5
 63
     7
421
 16777215
 74
     0
 91
        4
 64
     7
 65
   257
 75
     1
175
     1
 42
1.0
 92
        0
 66
     7
 43
1.0
 76
     1
 77
     6
 78
     2
 67
     7
 79
     5
170
     0
171
     0
290
     0
174
     0
 93
        1
 44
0.0
173
     0
291
     1
 45
0.0
  0
VISUALSTYLE
  5
F4
102
{ACAD_REACTORS
330
F0
102
}
330
F0
100
AcDbVisualStyle
  2
GouraudWithEdges
 70
     3
 71
     2
 72
     2
 73
     1
 90
        2
 40
-0.6
 41
30.0
 62
     5
 63
     7
421
 16777215
 74
     1
 91
        4
 64
     7
 65
   257
 75
     1
175
     1
 42
1.0
 92
        0
 66
   257
 43
1.0
 76
     1
 77
     6
 78
     2
 67
     7
 79
     5
170
     0
171
     0
290
     0
174
     0
 93
        1
 44
0.0
173
     0
291
     1
 45
0.0
  0
VISUALSTYLE
  5
FE
102
{ACAD_REACTORS
330
F0
102
}
330
F0
100
AcDbVisualStyle
  2
Linepattern
 70
    14
 71
     2
 72
     2
 73
     1
 90
        0
 40
-0.6
 41
-30.0
 62
     5
 63
     7
421
 16777215
 74
     1
 91
        4
 64
     7
 65
   257
 75
     7
175
     7
 42
1.0
 92
        8
 66
     7
 43
1.0
 76
     1
 77
     6
 78
     2
 67
     7
 79
     5
170
     0
171
     0
290
     0
174
     0
 93
        1
 44
0.0
173
     0
291
     1
 45
0.0
  0
VISUALSTYLE
  5
FA
102
{ACAD_REACTORS
330
F0
102
}
330
F0
100
AcDbVisualStyle
  2
Realistic
 70
     8
 71
     2
 72
     2
 73
     1
 90
        0
 40
-0.6
 41
-30.0
 62
     5
 63
     7
421
 16777215
 74
     1
 91
        0
 64
     7
 65
   257
 75
     1
175
     1
 42
1.0
 92
        8
 66
     8
424
  7895160
 43
1.0
 76
     1
 77
     6
 78
     2
 67
     7
 79
     5
170
     0
171
     0
290
     0
174
     0
 93
       13
 44
0.0
173
     0
291
     0
 45
0.0
  0
VISUALSTYLE
  5
FD
102
{ACAD_REACTORS
330
F0
102
}
330
F0
100
AcDbVisualStyle
  2
Thicken
 70
    13
 71
     2
 72
     2
 73
     1
 90
        0
 40
-0.6
 41
-30.0
 62
     5
 63
     7
421
 16777215
 74
     1
 91
        4
 64
     7
 65
   257
 75
     1
175
     1
 42
1.0
 92
       12
 66
     7
 43
1.0
 76
     1
 77
     6
 78
     2
 67
     7
 79
     5
170
     0
171
     0
290
     0
174
     0
 93
        1
 44
0.0
173
     0
291
     1
 45
0.0
  0
DICTIONARYVAR
  5
84
102
{ACAD_REACTORS
330
5E
102
}
330
5E
100
DictionaryVariables
280
     0
  1
STANDARD
  0
DICTIONARYVAR
  5
5F
102
{ACAD_REACTORS
330
5E
102
}
330
5E
100
DictionaryVariables
280
     0
  1
2
  0
DICTIONARYVAR
  5
63
102
{ACAD_REACTORS
330
5E
102
}
330
5E
100
DictionaryVariables
280
     0
  1
1
  0
ENDSEC
  0
EOF
