  0
SECTION
  2
HEADER
  9
$ACADVER
  1
AC1021
  9
$ACADMAINTVER
 70
     1
  9
$DWGCODEPAGE
  3
ANSI_936
  9
$LASTSAVEDBY
  1
dell
  9
$INSBASE
 10
0.0
 20
0.0
 30
0.0
  9
$EXTMIN
 10
1250.502382395535
 20
498.9539296512276
 30
0.0
  9
$EXTMAX
 10
2780.537658575943
 20
1466.122674377092
 30
0.0
  9
$LIMMIN
 10
0.0
 20
0.0
  9
$LIMMAX
 10
420.0
 20
297.0
  9
$ORTHOMODE
 70
     1
  9
$REGENMODE
 70
     1
  9
$FILLMODE
 70
     1
  9
$QTEXTMODE
 70
     0
  9
$MIRRTEXT
 70
     0
  9
$LTSCALE
 40
1.0
  9
$ATTMODE
 70
     1
  9
$TEXTSIZE
 40
2.5
  9
$TRACEWID
 40
1.0
  9
$TEXTSTYLE
  7
Standard
  9
$CLAYER
  8
0
  9
$CELTYPE
  6
ByLayer
  9
$CECOLOR
 62
   256
  9
$CELTSCALE
 40
1.0
  9
$DISPSILH
 70
     0
  9
$DIMSCALE
 40
1.0
  9
$DIMASZ
 40
2.5
  9
$DIMEXO
 40
0.625
  9
$DIMDLI
 40
3.75
  9
$DIMRND
 40
0.0
  9
$DIMDLE
 40
0.0
  9
$DIMEXE
 40
1.25
  9
$DIMTP
 40
0.0
  9
$DIMTM
 40
0.0
  9
$DIMTXT
 40
2.5
  9
$DIMCEN
 40
2.5
  9
$DIMTSZ
 40
0.0
  9
$DIMTOL
 70
     0
  9
$DIMLIM
 70
     0
  9
$DIMTIH
 70
     0
  9
$DIMTOH
 70
     0
  9
$DIMSE1
 70
     0
  9
$DIMSE2
 70
     0
  9
$DIMTAD
 70
     1
  9
$DIMZIN
 70
     8
  9
$DIMBLK
  1

  9
$DIMASO
 70
     1
  9
$DIMSHO
 70
     1
  9
$DIMPOST
  1

  9
$DIMAPOST
  1

  9
$DIMALT
 70
     0
  9
$DIMALTD
 70
     3
  9
$DIMALTF
 40
0.03937007874016
  9
$DIMLFAC
 40
1.0
  9
$DIMTOFL
 70
     1
  9
$DIMTVP
 40
0.0
  9
$DIMTIX
 70
     0
  9
$DIMSOXD
 70
     0
  9
$DIMSAH
 70
     0
  9
$DIMBLK1
  1

  9
$DIMBLK2
  1

  9
$DIMSTYLE
  2
ISO-25
  9
$DIMCLRD
 70
     0
  9
$DIMCLRE
 70
     0
  9
$DIMCLRT
 70
     0
  9
$DIMTFAC
 40
1.0
  9
$DIMGAP
 40
0.625
  9
$DIMJUST
 70
     0
  9
$DIMSD1
 70
     0
  9
$DIMSD2
 70
     0
  9
$DIMTOLJ
 70
     0
  9
$DIMTZIN
 70
     8
  9
$DIMALTZ
 70
     0
  9
$DIMALTTZ
 70
     0
  9
$DIMUPT
 70
     0
  9
$DIMDEC
 70
     2
  9
$DIMTDEC
 70
     2
  9
$DIMALTU
 70
     2
  9
$DIMALTTD
 70
     3
  9
$DIMTXSTY
  7
Standard
  9
$DIMAUNIT
 70
     0
  9
$DIMADEC
 70
     0
  9
$DIMALTRND
 40
0.0
  9
$DIMAZIN
 70
     0
  9
$DIMDSEP
 70
    44
  9
$DIMATFIT
 70
     3
  9
$DIMFRAC
 70
     0
  9
$DIMLDRBLK
  1

  9
$DIMLUNIT
 70
     2
  9
$DIMLWD
 70
    -2
  9
$DIMLWE
 70
    -2
  9
$DIMTMOVE
 70
     0
  9
$DIMFXL
 40
1.0
  9
$DIMFXLON
 70
     0
  9
$DIMJOGANG
 40
0.7853981633974483
  9
$DIMTFILL
 70
     0
  9
$DIMTFILLCLR
 70
     0
  9
$DIMARCSYM
 70
     0
  9
$DIMLTYPE
  6

  9
$DIMLTEX1
  6

  9
$DIMLTEX2
  6

  9
$LUNITS
 70
     2
  9
$LUPREC
 70
     4
  9
$SKETCHINC
 40
1.0
  9
$FILLETRAD
 40
2.0
  9
$AUNITS
 70
     0
  9
$AUPREC
 70
     0
  9
$MENU
  1
.
  9
$ELEVATION
 40
0.0
  9
$PELEVATION
 40
0.0
  9
$THICKNESS
 40
0.0
  9
$LIMCHECK
 70
     0
  9
$CHAMFERA
 40
0.0
  9
$CHAMFERB
 40
0.0
  9
$CHAMFERC
 40
0.0
  9
$CHAMFERD
 40
0.0
  9
$SKPOLY
 70
     0
  9
$TDCREATE
 40
2457619.644202697
  9
$TDUCREATE
 40
2457619.310869364
  9
$TDUPDATE
 40
2457656.587744688
  9
$TDUUPDATE
 40
2457656.254411354
  9
$TDINDWG
 40
0.0254669907
  9
$TDUSRTIMER
 40
0.0254632870
  9
$USRTIMER
 70
     1
  9
$ANGBASE
 50
0.0
  9
$ANGDIR
 70
     0
  9
$PDMODE
 70
     0
  9
$PDSIZE
 40
0.0
  9
$PLINEWID
 40
0.0
  9
$SPLFRAME
 70
     0
  9
$SPLINETYPE
 70
     6
  9
$SPLINESEGS
 70
     8
  9
$HANDSEED
  5
903
  9
$SURFTAB1
 70
     6
  9
$SURFTAB2
 70
     6
  9
$SURFTYPE
 70
     6
  9
$SURFU
 70
     6
  9
$SURFV
 70
     6
  9
$UCSBASE
  2

  9
$UCSNAME
  2

  9
$UCSORG
 10
0.0
 20
0.0
 30
0.0
  9
$UCSXDIR
 10
1.0
 20
0.0
 30
0.0
  9
$UCSYDIR
 10
0.0
 20
1.0
 30
0.0
  9
$UCSORTHOREF
  2

  9
$UCSORTHOVIEW
 70
     0
  9
$UCSORGTOP
 10
0.0
 20
0.0
 30
0.0
  9
$UCSORGBOTTOM
 10
0.0
 20
0.0
 30
0.0
  9
$UCSORGLEFT
 10
0.0
 20
0.0
 30
0.0
  9
$UCSORGRIGHT
 10
0.0
 20
0.0
 30
0.0
  9
$UCSORGFRONT
 10
0.0
 20
0.0
 30
0.0
  9
$UCSORGBACK
 10
0.0
 20
0.0
 30
0.0
  9
$PUCSBASE
  2

  9
$PUCSNAME
  2

  9
$PUCSORG
 10
0.0
 20
0.0
 30
0.0
  9
$PUCSXDIR
 10
1.0
 20
0.0
 30
0.0
  9
$PUCSYDIR
 10
0.0
 20
1.0
 30
0.0
  9
$PUCSORTHOREF
  2

  9
$PUCSORTHOVIEW
 70
     0
  9
$PUCSORGTOP
 10
0.0
 20
0.0
 30
0.0
  9
$PUCSORGBOTTOM
 10
0.0
 20
0.0
 30
0.0
  9
$PUCSORGLEFT
 10
0.0
 20
0.0
 30
0.0
  9
$PUCSORGRIGHT
 10
0.0
 20
0.0
 30
0.0
  9
$PUCSORGFRONT
 10
0.0
 20
0.0
 30
0.0
  9
$PUCSORGBACK
 10
0.0
 20
0.0
 30
0.0
  9
$USERI1
 70
     0
  9
$USERI2
 70
     0
  9
$USERI3
 70
     0
  9
$USERI4
 70
     0
  9
$USERI5
 70
     0
  9
$USERR1
 40
0.0
  9
$USERR2
 40
0.0
  9
$USERR3
 40
0.0
  9
$USERR4
 40
0.0
  9
$USERR5
 40
0.0
  9
$WORLDVIEW
 70
     1
  9
$SHADEDGE
 70
     3
  9
$SHADEDIF
 70
    70
  9
$TILEMODE
 70
     1
  9
$MAXACTVP
 70
    64
  9
$PINSBASE
 10
0.0
 20
0.0
 30
0.0
  9
$PLIMCHECK
 70
     0
  9
$PEXTMIN
 10
0.0
 20
0.0
 30
0.0
  9
$PEXTMAX
 10
0.0
 20
0.0
 30
0.0
  9
$PLIMMIN
 10
0.0
 20
0.0
  9
$PLIMMAX
 10
12.0
 20
9.0
  9
$UNITMODE
 70
     0
  9
$VISRETAIN
 70
     1
  9
$PLINEGEN
 70
     0
  9
$PSLTSCALE
 70
     1
  9
$TREEDEPTH
 70
  3020
  9
$CMLSTYLE
  2
Standard
  9
$CMLJUST
 70
     0
  9
$CMLSCALE
 40
20.0
  9
$PROXYGRAPHICS
 70
     1
  9
$MEASUREMENT
 70
     1
  9
$CELWEIGHT
370
    -1
  9
$ENDCAPS
280
     0
  9
$JOINSTYLE
280
     0
  9
$LWDISPLAY
290
     0
  9
$INSUNITS
 70
     4
  9
$HYPERLINKBASE
  1

  9
$STYLESHEET
  1

  9
$XEDIT
290
     1
  9
$CEPSNTYPE
380
     0
  9
$PSTYLEMODE
290
     1
  9
$FINGERPRINTGUID
  2
{E41CD5D1-3818-471A-B1D5-2C81A55AC83C}
  9
$VERSIONGUID
  2
{FC3D7BEC-8FF4-4CC6-84A3-B677626281DC}
  9
$EXTNAMES
290
     1
  9
$PSVPSCALE
 40
0.0
  9
$OLESTARTUP
290
     0
  9
$SORTENTS
280
   127
  9
$INDEXCTL
280
     0
  9
$HIDETEXT
280
     1
  9
$XCLIPFRAME
290
     0
  9
$HALOGAP
280
     0
  9
$OBSCOLOR
 70
   257
  9
$OBSLTYPE
280
     0
  9
$INTERSECTIONDISPLAY
280
     0
  9
$INTERSECTIONCOLOR
 70
   257
  9
$DIMASSOC
280
     2
  9
$PROJECTNAME
  1

  9
$CAMERADISPLAY
290
     0
  9
$LENSLENGTH
 40
50.0
  9
$CAMERAHEIGHT
 40
0.0
  9
$STEPSPERSEC
 40
2.0
  9
$STEPSIZE
 40
6.0
  9
$3DDWFPREC
 40
2.0
  9
$PSOLWIDTH
 40
5.0
  9
$PSOLHEIGHT
 40
80.0
  9
$LOFTANG1
 40
1.570796326794896
  9
$LOFTANG2
 40
1.570796326794896
  9
$LOFTMAG1
 40
0.0
  9
$LOFTMAG2
 40
0.0
  9
$LOFTPARAM
 70
     7
  9
$LOFTNORMALS
280
     1
  9
$LATITUDE
 40
37.795
  9
$LONGITUDE
 40
-122.394
  9
$NORTHDIRECTION
 40
0.0
  9
$TIMEZONE
 70
 -8000
  9
$LIGHTGLYPHDISPLAY
280
     1
  9
$TILEMODELIGHTSYNCH
280
     1
  9
$CMATERIAL
347
ED
  9
$SOLIDHIST
280
     1
  9
$SHOWHIST
280
     1
  9
$DWFFRAME
280
     2
  9
$DGNFRAME
280
     0
  9
$REALWORLDSCALE
290
     1
  9
$INTERFERECOLOR
 62
     1
  9
$INTERFEREOBJVS
345
FA
  9
$INTERFEREVPVS
346
F7
  9
$CSHADOW
280
     0
  9
$SHADOWPLANELOCATION
 40
0.0
  0
ENDSEC
  0
SECTION
  2
CLASSES
  0
CLASS
  1
ACDBDICTIONARYWDFLT
  2
AcDbDictionaryWithDefault
  3
ObjectDBX Classes
 90
        0
 91
        1
280
     0
281
     0
  0
CLASS
  1
DICTIONARYVAR
  2
AcDbDictionaryVar
  3
ObjectDBX Classes
 90
        0
 91
        3
280
     0
281
     0
  0
CLASS
  1
TABLESTYLE
  2
AcDbTableStyle
  3
ObjectDBX Classes
 90
     4095
 91
        1
280
     0
281
     0
  0
CLASS
  1
MATERIAL
  2
AcDbMaterial
  3
ObjectDBX Classes
 90
     1024
 91
        3
280
     0
281
     0
  0
CLASS
  1
VISUALSTYLE
  2
AcDbVisualStyle
  3
ObjectDBX Classes
 90
     4095
 91
       16
280
     0
281
     0
  0
CLASS
  1
DIMASSOC
  2
AcDbDimAssoc
  3
"AcDbDimAssoc|Product Desc:     AcDim ARX App For Dimension|Company:          Autodesk, Inc.|WEB Address:      www.autodesk.com"
 90
        0
 91
        2
280
     0
281
     0
  0
CLASS
  1
SORTENTSTABLE
  2
AcDbSortentsTable
  3
ObjectDBX Classes
 90
        0
 91
        1
280
     0
281
     0
  0
ENDSEC
  0
SECTION
  2
TABLES
  0
TABLE
  2
VPORT
  5
8
330
0
100
AcDbSymbolTable
 70
     1
  0
VPORT
  5
EB
330
8
100
AcDbSymbolTableRecord
100
AcDbViewportTableRecord
  2
*Active
 70
     0
 10
0.0
 20
0.0
 11
1.0
 21
1.0
 12
1566.439127145708
 22
1032.523998516829
 13
0.0
 23
0.0
 14
10.0
 24
10.0
 15
10.0
 25
10.0
 16
0.0
 26
0.0
 36
1.0
 17
0.0
 27
0.0
 37
0.0
 40
1357.936834309085
 41
2.302843016069221
 42
50.0
 43
0.0
 44
0.0
 50
0.0
 51
0.0
 71
     0
 72
  1000
 73
     1
 74
     3
 75
     0
 76
     0
 77
     0
 78
     0
281
     0
 65
     1
110
0.0
120
0.0
130
0.0
111
1.0
121
0.0
131
0.0
112
0.0
122
1.0
132
0.0
 79
     0
146
0.0
348
F6
 60
     2
 61
     5
292
     1
282
     1
141
0.0
142
0.0
 63
   250
421
  3355443
  0
ENDTAB
  0
TABLE
  2
LTYPE
  5
5
330
0
100
AcDbSymbolTable
 70
     1
  0
LTYPE
  5
14
330
5
100
AcDbSymbolTableRecord
100
AcDbLinetypeTableRecord
  2
ByBlock
 70
     0
  3

 72
    65
 73
     0
 40
0.0
  0
LTYPE
  5
15
330
5
100
AcDbSymbolTableRecord
100
AcDbLinetypeTableRecord
  2
ByLayer
 70
     0
  3

 72
    65
 73
     0
 40
0.0
  0
LTYPE
  5
16
330
5
100
AcDbSymbolTableRecord
100
AcDbLinetypeTableRecord
  2
Continuous
 70
     0
  3
Solid line
 72
    65
 73
     0
 40
0.0
  0
ENDTAB
  0
TABLE
  2
LAYER
  5
2
330
0
100
AcDbSymbolTable
 70
     3
  0
LAYER
  5
10
330
2
100
AcDbSymbolTableRecord
100
AcDbLayerTableRecord
  2
0
 70
     0
 62
     7
  6
Continuous
370
    -3
390
F
347
EF
  0
LAYER
  5
1CC
330
2
100
AcDbSymbolTableRecord
100
AcDbLayerTableRecord
  2
_U+56FE_U+5C42 1
 70
     0
 62
     1
  6
Continuous
370
    -3
390
F
347
EF
  0
LAYER
  5
1CD
330
2
100
AcDbSymbolTableRecord
100
AcDbLayerTableRecord
  2
Defpoints
 70
     0
 62
     2
  6
Continuous
290
     0
370
    -3
390
F
347
EF
  0
ENDTAB
  0
TABLE
  2
STYLE
  5
3
330
0
100
AcDbSymbolTable
 70
     1
  0
STYLE
  5
11
330
3
100
AcDbSymbolTableRecord
100
AcDbTextStyleTableRecord
  2
Standard
 70
     0
 40
0.0
 41
1.0
 50
0.0
 71
     0
 42
2.5
  3
txt
  4
gbcbig.shx
  0
ENDTAB
  0
TABLE
  2
VIEW
  5
6
330
0
100
AcDbSymbolTable
 70
     0
  0
ENDTAB
  0
TABLE
  2
UCS
  5
7
330
0
100
AcDbSymbolTable
 70
     0
  0
ENDTAB
  0
TABLE
  2
APPID
  5
9
330
0
100
AcDbSymbolTable
 70
     3
  0
APPID
  5
12
330
9
100
AcDbSymbolTableRecord
100
AcDbRegAppTableRecord
  2
ACAD
 70
     0
  0
APPID
  5
9E
330
9
100
AcDbSymbolTableRecord
100
AcDbRegAppTableRecord
  2
ACAD_PSEXT
 70
     0
  0
APPID
  5
5E9
330
9
100
AcDbSymbolTableRecord
100
AcDbRegAppTableRecord
  2
ACAD_EXEMPT_FROM_CAD_STANDARDS
 70
     0
  0
ENDTAB
  0
TABLE
  2
DIMSTYLE
  5
A
330
0
100
AcDbSymbolTable
 70
     2
100
AcDbDimStyleTable
 71
     1
340
27
  0
DIMSTYLE
105
27
330
A
100
AcDbSymbolTableRecord
100
AcDbDimStyleTableRecord
  2
ISO-25
 70
     0
 41
2.5
 42
0.625
 43
3.75
 44
1.25
 73
     0
 74
     0
 77
     1
 78
     8
140
2.5
141
2.5
143
0.03937007874016
147
0.625
171
     3
172
     1
271
     2
272
     2
274
     3
278
    44
283
     0
284
     8
340
11
  0
DIMSTYLE
105
1CE
102
{ACAD_REACTORS
330
7D4
330
7D5
330
7D8
102
}
330
A
100
AcDbSymbolTableRecord
100
AcDbDimStyleTableRecord
  2
Standard
 70
     0
140
15.0
271
     1
272
     1
340
11
  0
ENDTAB
  0
TABLE
  2
BLOCK_RECORD
  5
1
330
0
100
AcDbSymbolTable
 70
    40
  0
BLOCK_RECORD
  5
1F
102
{ACAD_XDICTIONARY
360
5F0
102
}
330
1
100
AcDbSymbolTableRecord
100
AcDbBlockTableRecord
  2
*Model_Space
340
22
 70
     0
280
     1
281
     0
  0
BLOCK_RECORD
  5
D2
330
1
100
AcDbSymbolTableRecord
100
AcDbBlockTableRecord
  2
*Paper_Space
340
D3
 70
     0
280
     1
281
     0
  0
BLOCK_RECORD
  5
D6
330
1
100
AcDbSymbolTableRecord
100
AcDbBlockTableRecord
  2
*Paper_Space0
340
D7
 70
     0
280
     1
281
     0
  0
BLOCK_RECORD
  5
123
330
1
100
AcDbSymbolTableRecord
100
AcDbBlockTableRecord
  2
*D1
340
0
 70
     0
280
     1
281
     0
  0
BLOCK_RECORD
  5
130
330
1
100
AcDbSymbolTableRecord
100
AcDbBlockTableRecord
  2
*D2
340
0
 70
     0
280
     1
281
     0
  0
BLOCK_RECORD
  5
13D
330
1
100
AcDbSymbolTableRecord
100
AcDbBlockTableRecord
  2
*D3
340
0
 70
     0
280
     1
281
     0
  0
BLOCK_RECORD
  5
14A
330
1
100
AcDbSymbolTableRecord
100
AcDbBlockTableRecord
  2
*D4
340
0
 70
     0
280
     1
281
     0
  0
BLOCK_RECORD
  5
157
330
1
100
AcDbSymbolTableRecord
100
AcDbBlockTableRecord
  2
*D5
340
0
 70
     0
280
     1
281
     0
  0
BLOCK_RECORD
  5
164
330
1
100
AcDbSymbolTableRecord
100
AcDbBlockTableRecord
  2
*D6
340
0
 70
     0
280
     1
281
     0
  0
BLOCK_RECORD
  5
171
330
1
100
AcDbSymbolTableRecord
100
AcDbBlockTableRecord
  2
*D7
340
0
 70
     0
280
     1
281
     0
  0
BLOCK_RECORD
  5
17E
330
1
100
AcDbSymbolTableRecord
100
AcDbBlockTableRecord
  2
*D8
340
0
 70
     0
280
     1
281
     0
  0
BLOCK_RECORD
  5
18B
330
1
100
AcDbSymbolTableRecord
100
AcDbBlockTableRecord
  2
*D9
340
0
 70
     0
280
     1
281
     0
  0
BLOCK_RECORD
  5
198
330
1
100
AcDbSymbolTableRecord
100
AcDbBlockTableRecord
  2
*D10
340
0
 70
     0
280
     1
281
     0
  0
BLOCK_RECORD
  5
1A5
330
1
100
AcDbSymbolTableRecord
100
AcDbBlockTableRecord
  2
*D11
340
0
 70
     0
280
     1
281
     0
  0
BLOCK_RECORD
  5
1B2
330
1
100
AcDbSymbolTableRecord
100
AcDbBlockTableRecord
  2
*D12
340
0
 70
     0
280
     1
281
     0
  0
BLOCK_RECORD
  5
1BF
330
1
100
AcDbSymbolTableRecord
100
AcDbBlockTableRecord
  2
*D13
340
0
 70
     0
280
     1
281
     0
  0
BLOCK_RECORD
  5
3BE
330
1
100
AcDbSymbolTableRecord
100
AcDbBlockTableRecord
  2
*D14
340
0
 70
     0
280
     1
281
     0
  0
BLOCK_RECORD
  5
3D5
330
1
100
AcDbSymbolTableRecord
100
AcDbBlockTableRecord
  2
*D15
340
0
 70
     0
280
     1
281
     0
  0
BLOCK_RECORD
  5
3E2
330
1
100
AcDbSymbolTableRecord
100
AcDbBlockTableRecord
  2
*D16
340
0
 70
     0
280
     1
281
     0
  0
BLOCK_RECORD
  5
3EF
330
1
100
AcDbSymbolTableRecord
100
AcDbBlockTableRecord
  2
*D17
340
0
 70
     0
280
     1
281
     0
  0
BLOCK_RECORD
  5
3FC
330
1
100
AcDbSymbolTableRecord
100
AcDbBlockTableRecord
  2
*D18
340
0
 70
     0
280
     1
281
     0
  0
BLOCK_RECORD
  5
409
330
1
100
AcDbSymbolTableRecord
100
AcDbBlockTableRecord
  2
*D19
340
0
 70
     0
280
     1
281
     0
  0
BLOCK_RECORD
  5
416
330
1
100
AcDbSymbolTableRecord
100
AcDbBlockTableRecord
  2
*D20
340
0
 70
     0
280
     1
281
     0
  0
BLOCK_RECORD
  5
423
330
1
100
AcDbSymbolTableRecord
100
AcDbBlockTableRecord
  2
*D21
340
0
 70
     0
280
     1
281
     0
  0
BLOCK_RECORD
  5
430
330
1
100
AcDbSymbolTableRecord
100
AcDbBlockTableRecord
  2
*D22
340
0
 70
     0
280
     1
281
     0
  0
BLOCK_RECORD
  5
43D
330
1
100
AcDbSymbolTableRecord
100
AcDbBlockTableRecord
  2
*D23
340
0
 70
     0
280
     1
281
     0
  0
BLOCK_RECORD
  5
44A
330
1
100
AcDbSymbolTableRecord
100
AcDbBlockTableRecord
  2
*D24
340
0
 70
     0
280
     1
281
     0
  0
BLOCK_RECORD
  5
457
330
1
100
AcDbSymbolTableRecord
100
AcDbBlockTableRecord
  2
*D25
340
0
 70
     0
280
     1
281
     0
  0
BLOCK_RECORD
  5
464
330
1
100
AcDbSymbolTableRecord
100
AcDbBlockTableRecord
  2
*D26
340
0
 70
     0
280
     1
281
     0
  0
BLOCK_RECORD
  5
4A9
330
1
100
AcDbSymbolTableRecord
100
AcDbBlockTableRecord
  2
*D27
340
0
 70
     0
280
     1
281
     0
  0
BLOCK_RECORD
  5
4B6
330
1
100
AcDbSymbolTableRecord
100
AcDbBlockTableRecord
  2
*D28
340
0
 70
     0
280
     1
281
     0
  0
BLOCK_RECORD
  5
5B5
330
1
100
AcDbSymbolTableRecord
100
AcDbBlockTableRecord
  2
*D29
340
0
 70
     0
280
     1
281
     0
  0
BLOCK_RECORD
  5
5C2
330
1
100
AcDbSymbolTableRecord
100
AcDbBlockTableRecord
  2
*D30
340
0
 70
     0
280
     1
281
     0
  0
BLOCK_RECORD
  5
69B
330
1
100
AcDbSymbolTableRecord
100
AcDbBlockTableRecord
  2
*D31
340
0
 70
     0
280
     1
281
     0
  0
BLOCK_RECORD
  5
6B3
330
1
100
AcDbSymbolTableRecord
100
AcDbBlockTableRecord
  2
*D32
340
0
 70
     0
280
     1
281
     0
  0
BLOCK_RECORD
  5
6DE
330
1
100
AcDbSymbolTableRecord
100
AcDbBlockTableRecord
  2
*D33
340
0
 70
     0
280
     1
281
     0
  0
BLOCK_RECORD
  5
732
330
1
100
AcDbSymbolTableRecord
100
AcDbBlockTableRecord
  2
*D34
340
0
 70
     0
280
     1
281
     0
  0
BLOCK_RECORD
  5
73F
330
1
100
AcDbSymbolTableRecord
100
AcDbBlockTableRecord
  2
*D35
340
0
 70
     0
280
     1
281
     0
  0
BLOCK_RECORD
  5
74B
330
1
100
AcDbSymbolTableRecord
100
AcDbBlockTableRecord
  2
*D36
340
0
 70
     0
280
     1
281
     0
  0
BLOCK_RECORD
  5
82E
330
1
100
AcDbSymbolTableRecord
100
AcDbBlockTableRecord
  2
*D37
340
0
 70
     0
280
     1
281
     0
  0
BLOCK_RECORD
  5
845
330
1
100
AcDbSymbolTableRecord
100
AcDbBlockTableRecord
  2
*D38
340
0
 70
     0
280
     1
281
     0
  0
BLOCK_RECORD
  5
852
330
1
100
AcDbSymbolTableRecord
100
AcDbBlockTableRecord
  2
*D39
340
0
 70
     0
280
     1
281
     0
  0
ENDTAB
  0
ENDSEC
  0
SECTION
  2
BLOCKS
  0
BLOCK
  5
20
330
1F
100
AcDbEntity
  8
0
100
AcDbBlockBegin
  2
*Model_Space
 70
     0
 10
0.0
 20
0.0
 30
0.0
  3
*Model_Space
  1

  0
ENDBLK
  5
21
330
1F
100
AcDbEntity
  8
0
100
AcDbBlockEnd
  0
BLOCK
  5
D4
330
D2
100
AcDbEntity
 67
     1
  8
0
100
AcDbBlockBegin
  2
*Paper_Space
 70
     0
 10
0.0
 20
0.0
 30
0.0
  3
*Paper_Space
  1

  0
ENDBLK
  5
D5
330
D2
100
AcDbEntity
 67
     1
  8
0
100
AcDbBlockEnd
  0
BLOCK
  5
D8
330
D6
100
AcDbEntity
 67
     1
  8
0
100
AcDbBlockBegin
  2
*Paper_Space0
 70
     0
 10
0.0
 20
0.0
 30
0.0
  3
*Paper_Space0
  1

  0
ENDBLK
  5
D9
330
D6
100
AcDbEntity
 67
     1
  8
0
100
AcDbBlockEnd
  0
BLOCK
  5
124
330
123
100
AcDbEntity
  8
0
100
AcDbBlockBegin
  2
*D1
 70
     1
 10
0.0
 20
0.0
 30
0.0
  3
*D1
  1

  0
LINE
  5
125
330
123
100
AcDbEntity
  8
0
 62
     0
370
    -2
100
AcDbLine
 10
1926.566676905139
 20
188.9385047696007
 30
0.0
 11
1926.566676905139
 21
192.4221670890883
 31
0.0
  0
LINE
  5
126
330
123
100
AcDbEntity
  8
0
 62
     0
370
    -2
100
AcDbLine
 10
2186.566676905139
 20
188.9385047696007
 30
0.0
 11
2186.566676905139
 21
192.4221670890883
 31
0.0
  0
LINE
  5
127
330
123
100
AcDbEntity
  8
0
 62
     0
370
    -2
100
AcDbLine
 10
1926.74667690514
 20
192.2421670890883
 30
0.0
 11
2028.97667690514
 21
192.2421670890883
 31
0.0
  0
LINE
  5
128
330
123
100
AcDbEntity
  8
0
 62
     0
370
    -2
100
AcDbLine
 10
2186.38667690514
 20
192.2421670890883
 30
0.0
 11
2084.15667690514
 21
192.2421670890883
 31
0.0
  0
SOLID
  5
129
330
123
100
AcDbEntity
  8
0
 62
     0
100
AcDbTrace
 10
1926.74667690514
 20
192.2721670890883
 30
0.0
 11
1926.74667690514
 21
192.2121670890883
 31
0.0
 12
1926.566676905139
 22
192.2421670890883
 32
0.0
 13
1926.566676905139
 23
192.2421670890883
 33
0.0
  0
SOLID
  5
12A
330
123
100
AcDbEntity
  8
0
 62
     0
100
AcDbTrace
 10
2186.38667690514
 20
192.2721670890883
 30
0.0
 11
2186.38667690514
 21
192.2121670890883
 31
0.0
 12
2186.566676905139
 22
192.2421670890883
 32
0.0
 13
2186.566676905139
 23
192.2421670890883
 33
0.0
  0
MTEXT
  5
12B
330
123
100
AcDbEntity
  8
0
 62
     0
100
AcDbMText
 10
2056.56667690514
 20
192.2421670890883
 30
0.0
 40
15.0
 41
0.0
 46
0.0
 71
     5
 72
     1
  1
\A1;260.0
 73
     1
 44
1.0
  0
POINT
  5
12C
330
123
100
AcDbEntity
  8
Defpoints
 62
     0
100
AcDbPoint
 10
1926.566676905139
 20
188.8760047696007
 30
0.0
  0
POINT
  5
12D
330
123
100
AcDbEntity
  8
Defpoints
 62
     0
100
AcDbPoint
 10
2186.566676905139
 20
188.8760047696007
 30
0.0
  0
POINT
  5
12E
330
123
100
AcDbEntity
  8
Defpoints
 62
     0
100
AcDbPoint
 10
2186.566676905139
 20
192.2421670890883
 30
0.0
  0
ENDBLK
  5
12F
330
123
100
AcDbEntity
  8
0
100
AcDbBlockEnd
  0
BLOCK
  5
131
330
130
100
AcDbEntity
  8
0
100
AcDbBlockBegin
  2
*D2
 70
     1
 10
0.0
 20
0.0
 30
0.0
  3
*D2
  1

  0
LINE
  5
132
330
130
100
AcDbEntity
  8
0
 62
     0
370
    -2
100
AcDbLine
 10
2149.636058107273
 20
375.3006236029932
 30
0.0
 11
2149.518558107273
 21
375.3006236029932
 31
0.0
  0
LINE
  5
133
330
130
100
AcDbEntity
  8
0
 62
     0
370
    -2
100
AcDbLine
 10
2149.636058107273
 20
115.3006236029933
 30
0.0
 11
2149.518558107273
 21
115.3006236029933
 31
0.0
  0
LINE
  5
134
330
130
100
AcDbEntity
  8
0
 62
     0
370
    -2
100
AcDbLine
 10
2149.698558107273
 20
375.1206236029933
 30
0.0
 11
2149.698558107273
 21
252.8906236029933
 31
0.0
  0
LINE
  5
135
330
130
100
AcDbEntity
  8
0
 62
     0
370
    -2
100
AcDbLine
 10
2149.698558107273
 20
115.4806236029933
 30
0.0
 11
2149.698558107273
 21
237.7106236029932
 31
0.0
  0
SOLID
  5
136
330
130
100
AcDbEntity
  8
0
 62
     0
100
AcDbTrace
 10
2149.668558107272
 20
375.1206236029933
 30
0.0
 11
2149.728558107273
 21
375.1206236029933
 31
0.0
 12
2149.698558107273
 22
375.3006236029932
 32
0.0
 13
2149.698558107273
 23
375.3006236029932
 33
0.0
  0
SOLID
  5
137
330
130
100
AcDbEntity
  8
0
 62
     0
100
AcDbTrace
 10
2149.668558107272
 20
115.4806236029933
 30
0.0
 11
2149.728558107273
 21
115.4806236029933
 31
0.0
 12
2149.698558107273
 22
115.3006236029933
 32
0.0
 13
2149.698558107273
 23
115.3006236029933
 33
0.0
  0
MTEXT
  5
138
330
130
100
AcDbEntity
  8
0
 62
     0
100
AcDbMText
 10
2149.698558107273
 20
245.3006236029936
 30
0.0
 40
15.0
 41
0.0
 46
0.0
 71
     5
 72
     1
  1
\A1;260.0
 73
     1
 44
1.0
  0
POINT
  5
139
330
130
100
AcDbEntity
  8
Defpoints
 62
     0
100
AcDbPoint
 10
2149.698558107273
 20
375.3006236029932
 30
0.0
  0
POINT
  5
13A
330
130
100
AcDbEntity
  8
Defpoints
 62
     0
100
AcDbPoint
 10
2149.698558107273
 20
115.3006236029933
 30
0.0
  0
POINT
  5
13B
330
130
100
AcDbEntity
  8
Defpoints
 62
     0
100
AcDbPoint
 10
2149.698558107273
 20
115.3006236029933
 30
0.0
  0
ENDBLK
  5
13C
330
130
100
AcDbEntity
  8
0
100
AcDbBlockEnd
  0
BLOCK
  5
13E
330
13D
100
AcDbEntity
  8
0
100
AcDbBlockBegin
  2
*D3
 70
     1
 10
0.0
 20
0.0
 30
0.0
  3
*D3
  1

  0
LINE
  5
13F
330
13D
100
AcDbEntity
  8
0
 62
     0
370
    -2
100
AcDbLine
 10
2056.50417690514
 20
530.3006236029931
 30
0.0
 11
2042.524218764108
 21
530.3006236029931
 31
0.0
  0
LINE
  5
140
330
13D
100
AcDbEntity
  8
0
 62
     0
370
    -2
100
AcDbLine
 10
2056.50417690514
 20
375.3006236029932
 30
0.0
 11
2042.524218764107
 21
375.3006236029932
 31
0.0
  0
LINE
  5
141
330
13D
100
AcDbEntity
  8
0
 62
     0
370
    -2
100
AcDbLine
 10
2042.704218764108
 20
530.1206236029933
 30
0.0
 11
2042.704218764107
 21
460.390623602993
 31
0.0
  0
LINE
  5
142
330
13D
100
AcDbEntity
  8
0
 62
     0
370
    -2
100
AcDbLine
 10
2042.704218764107
 20
375.4806236029933
 30
0.0
 11
2042.704218764107
 21
445.2106236029933
 31
0.0
  0
SOLID
  5
143
330
13D
100
AcDbEntity
  8
0
 62
     0
100
AcDbTrace
 10
2042.674218764108
 20
530.1206236029933
 30
0.0
 11
2042.734218764108
 21
530.1206236029933
 31
0.0
 12
2042.704218764108
 22
530.3006236029931
 32
0.0
 13
2042.704218764108
 23
530.3006236029931
 33
0.0
  0
SOLID
  5
144
330
13D
100
AcDbEntity
  8
0
 62
     0
100
AcDbTrace
 10
2042.674218764108
 20
375.4806236029933
 30
0.0
 11
2042.734218764107
 21
375.4806236029933
 31
0.0
 12
2042.704218764107
 22
375.3006236029932
 32
0.0
 13
2042.704218764107
 23
375.3006236029932
 33
0.0
  0
MTEXT
  5
145
330
13D
100
AcDbEntity
  8
0
 62
     0
100
AcDbMText
 10
2042.704218764107
 20
452.8006236029936
 30
0.0
 40
15.0
 41
0.0
 46
0.0
 71
     5
 72
     1
  1
\A1;155.0
 73
     1
 44
1.0
  0
POINT
  5
146
330
13D
100
AcDbEntity
  8
Defpoints
 62
     0
100
AcDbPoint
 10
2056.56667690514
 20
530.3006236029931
 30
0.0
  0
POINT
  5
147
330
13D
100
AcDbEntity
  8
Defpoints
 62
     0
100
AcDbPoint
 10
2056.56667690514
 20
375.3006236029932
 30
0.0
  0
POINT
  5
148
330
13D
100
AcDbEntity
  8
Defpoints
 62
     0
100
AcDbPoint
 10
2042.704218764107
 20
375.3006236029932
 30
0.0
  0
ENDBLK
  5
149
330
13D
100
AcDbEntity
  8
0
100
AcDbBlockEnd
  0
BLOCK
  5
14B
330
14A
100
AcDbEntity
  8
0
100
AcDbBlockBegin
  2
*D4
 70
     1
 10
0.0
 20
0.0
 30
0.0
  3
*D4
  1

  0
LINE
  5
14C
330
14A
100
AcDbEntity
  8
0
 62
     0
370
    -2
100
AcDbLine
 10
2186.566676905139
 20
660.2381236029932
 30
0.0
 11
2186.566676905139
 21
654.1969691744752
 31
0.0
  0
LINE
  5
14D
330
14A
100
AcDbEntity
  8
0
 62
     0
370
    -2
100
AcDbLine
 10
2261.566676905141
 20
660.2381236029932
 30
0.0
 11
2261.566676905141
 21
654.1969691744752
 31
0.0
  0
LINE
  5
14E
330
14A
100
AcDbEntity
  8
0
 62
     0
370
    -2
100
AcDbLine
 10
2186.746676905139
 20
654.3769691744752
 30
0.0
 11
2202.72667690514
 21
654.3769691744752
 31
0.0
  0
LINE
  5
14F
330
14A
100
AcDbEntity
  8
0
 62
     0
370
    -2
100
AcDbLine
 10
2261.386676905141
 20
654.3769691744752
 30
0.0
 11
2245.40667690514
 21
654.3769691744752
 31
0.0
  0
SOLID
  5
150
330
14A
100
AcDbEntity
  8
0
 62
     0
100
AcDbTrace
 10
2186.746676905139
 20
654.4069691744752
 30
0.0
 11
2186.746676905139
 21
654.3469691744753
 31
0.0
 12
2186.566676905139
 22
654.3769691744752
 32
0.0
 13
2186.566676905139
 23
654.3769691744752
 33
0.0
  0
SOLID
  5
151
330
14A
100
AcDbEntity
  8
0
 62
     0
100
AcDbTrace
 10
2261.386676905141
 20
654.4069691744752
 30
0.0
 11
2261.386676905141
 21
654.3469691744753
 31
0.0
 12
2261.566676905141
 22
654.3769691744752
 32
0.0
 13
2261.566676905141
 23
654.3769691744752
 33
0.0
  0
MTEXT
  5
152
330
14A
100
AcDbEntity
  8
0
 62
     0
100
AcDbMText
 10
2224.06667690514
 20
654.3769691744752
 30
0.0
 40
15.0
 41
0.0
 46
0.0
 71
     5
 72
     1
  1
\A1;75.0
 73
     1
 44
1.0
  0
POINT
  5
153
330
14A
100
AcDbEntity
  8
Defpoints
 62
     0
100
AcDbPoint
 10
2186.566676905139
 20
660.3006236029933
 30
0.0
  0
POINT
  5
154
330
14A
100
AcDbEntity
  8
Defpoints
 62
     0
100
AcDbPoint
 10
2261.566676905141
 20
660.3006236029933
 30
0.0
  0
POINT
  5
155
330
14A
100
AcDbEntity
  8
Defpoints
 62
     0
100
AcDbPoint
 10
2261.566676905141
 20
654.3769691744752
 30
0.0
  0
ENDBLK
  5
156
330
14A
100
AcDbEntity
  8
0
100
AcDbBlockEnd
  0
BLOCK
  5
158
330
157
100
AcDbEntity
  8
0
100
AcDbBlockBegin
  2
*D5
 70
     1
 10
0.0
 20
0.0
 30
0.0
  3
*D5
  1

  0
LINE
  5
159
330
157
100
AcDbEntity
  8
0
 62
     0
370
    -2
100
AcDbLine
 10
2186.566676905139
 20
267.8066927333376
 30
0.0
 11
2186.566676905139
 21
269.5520119593205
 31
0.0
  0
LINE
  5
15A
330
157
100
AcDbEntity
  8
0
 62
     0
370
    -2
100
AcDbLine
 10
2261.56667690514
 20
267.8066927333376
 30
0.0
 11
2261.56667690514
 21
269.5520119593205
 31
0.0
  0
LINE
  5
15B
330
157
100
AcDbEntity
  8
0
 62
     0
370
    -2
100
AcDbLine
 10
2186.746676905139
 20
269.3720119593205
 30
0.0
 11
2202.72667690514
 21
269.3720119593205
 31
0.0
  0
LINE
  5
15C
330
157
100
AcDbEntity
  8
0
 62
     0
370
    -2
100
AcDbLine
 10
2261.38667690514
 20
269.3720119593205
 30
0.0
 11
2245.40667690514
 21
269.3720119593205
 31
0.0
  0
SOLID
  5
15D
330
157
100
AcDbEntity
  8
0
 62
     0
100
AcDbTrace
 10
2186.746676905139
 20
269.4020119593205
 30
0.0
 11
2186.746676905139
 21
269.3420119593205
 31
0.0
 12
2186.566676905139
 22
269.3720119593205
 32
0.0
 13
2186.566676905139
 23
269.3720119593205
 33
0.0
  0
SOLID
  5
15E
330
157
100
AcDbEntity
  8
0
 62
     0
100
AcDbTrace
 10
2261.38667690514
 20
269.4020119593205
 30
0.0
 11
2261.38667690514
 21
269.3420119593205
 31
0.0
 12
2261.56667690514
 22
269.3720119593205
 32
0.0
 13
2261.56667690514
 23
269.3720119593205
 33
0.0
  0
MTEXT
  5
15F
330
157
100
AcDbEntity
  8
0
 62
     0
100
AcDbMText
 10
2224.06667690514
 20
269.3720119593205
 30
0.0
 40
15.0
 41
0.0
 46
0.0
 71
     5
 72
     1
  1
\A1;75.0
 73
     1
 44
1.0
  0
POINT
  5
160
330
157
100
AcDbEntity
  8
Defpoints
 62
     0
100
AcDbPoint
 10
2186.566676905139
 20
267.7441927333376
 30
0.0
  0
POINT
  5
161
330
157
100
AcDbEntity
  8
Defpoints
 62
     0
100
AcDbPoint
 10
2261.56667690514
 20
267.7441927333376
 30
0.0
  0
POINT
  5
162
330
157
100
AcDbEntity
  8
Defpoints
 62
     0
100
AcDbPoint
 10
2261.56667690514
 20
269.3720119593205
 30
0.0
  0
ENDBLK
  5
163
330
157
100
AcDbEntity
  8
0
100
AcDbBlockEnd
  0
BLOCK
  5
165
330
164
100
AcDbEntity
  8
0
100
AcDbBlockBegin
  2
*D6
 70
     1
 10
0.0
 20
0.0
 30
0.0
  3
*D6
  1

  0
LINE
  5
166
330
164
100
AcDbEntity
  8
0
 62
     0
370
    -2
100
AcDbLine
 10
2185.56667690514
 20
430.0849033686207
 30
0.0
 11
2185.56667690514
 21
452.0698523178256
 31
0.0
  0
LINE
  5
167
330
164
100
AcDbEntity
  8
0
 62
     0
370
    -2
100
AcDbLine
 10
2267.56667690514
 20
430.0849033686203
 30
0.0
 11
2267.56667690514
 21
452.0698523178256
 31
0.0
  0
LINE
  5
168
330
164
100
AcDbEntity
  8
0
 62
     0
370
    -2
100
AcDbLine
 10
2185.746676905139
 20
451.8898523178257
 30
0.0
 11
2205.226676905139
 21
451.8898523178257
 31
0.0
  0
LINE
  5
169
330
164
100
AcDbEntity
  8
0
 62
     0
370
    -2
100
AcDbLine
 10
2267.38667690514
 20
451.8898523178257
 30
0.0
 11
2247.90667690514
 21
451.8898523178257
 31
0.0
  0
SOLID
  5
16A
330
164
100
AcDbEntity
  8
0
 62
     0
100
AcDbTrace
 10
2185.746676905139
 20
451.9198523178257
 30
0.0
 11
2185.746676905139
 21
451.8598523178257
 31
0.0
 12
2185.56667690514
 22
451.8898523178257
 32
0.0
 13
2185.56667690514
 23
451.8898523178257
 33
0.0
  0
SOLID
  5
16B
330
164
100
AcDbEntity
  8
0
 62
     0
100
AcDbTrace
 10
2267.38667690514
 20
451.9198523178257
 30
0.0
 11
2267.38667690514
 21
451.8598523178257
 31
0.0
 12
2267.56667690514
 22
451.8898523178257
 32
0.0
 13
2267.56667690514
 23
451.8898523178257
 33
0.0
  0
MTEXT
  5
16C
330
164
100
AcDbEntity
  8
0
 62
     0
100
AcDbMText
 10
2226.566676905139
 20
451.8898523178257
 30
0.0
 40
15.0
 41
0.0
 46
0.0
 71
     5
 72
     1
  1
\A1;82.0
 73
     1
 44
1.0
  0
POINT
  5
16D
330
164
100
AcDbEntity
  8
Defpoints
 62
     0
100
AcDbPoint
 10
2185.56667690514
 20
430.0224033686204
 30
0.0
  0
POINT
  5
16E
330
164
100
AcDbEntity
  8
Defpoints
 62
     0
100
AcDbPoint
 10
2267.56667690514
 20
430.0224033686203
 30
0.0
  0
POINT
  5
16F
330
164
100
AcDbEntity
  8
Defpoints
 62
     0
100
AcDbPoint
 10
2267.56667690514
 20
451.8898523178257
 30
0.0
  0
ENDBLK
  5
170
330
164
100
AcDbEntity
  8
0
100
AcDbBlockEnd
  0
BLOCK
  5
172
330
171
100
AcDbEntity
  8
0
100
AcDbBlockBegin
  2
*D7
 70
     1
 10
0.0
 20
0.0
 30
0.0
  3
*D7
  1

  0
LINE
  5
173
330
171
100
AcDbEntity
  8
0
 62
     0
370
    -2
100
AcDbLine
 10
1926.566676905139
 20
660.2381236029932
 30
0.0
 11
1926.566676905139
 21
654.1969691744752
 31
0.0
  0
LINE
  5
174
330
171
100
AcDbEntity
  8
0
 62
     0
370
    -2
100
AcDbLine
 10
1851.566676905139
 20
660.2381236029932
 30
0.0
 11
1851.566676905139
 21
654.1969691744752
 31
0.0
  0
LINE
  5
175
330
171
100
AcDbEntity
  8
0
 62
     0
370
    -2
100
AcDbLine
 10
1926.38667690514
 20
654.3769691744752
 30
0.0
 11
1910.406676905139
 21
654.3769691744752
 31
0.0
  0
LINE
  5
176
330
171
100
AcDbEntity
  8
0
 62
     0
370
    -2
100
AcDbLine
 10
1851.746676905139
 20
654.3769691744752
 30
0.0
 11
1867.726676905139
 21
654.3769691744752
 31
0.0
  0
SOLID
  5
177
330
171
100
AcDbEntity
  8
0
 62
     0
100
AcDbTrace
 10
1926.38667690514
 20
654.4069691744752
 30
0.0
 11
1926.38667690514
 21
654.3469691744753
 31
0.0
 12
1926.566676905139
 22
654.3769691744752
 32
0.0
 13
1926.566676905139
 23
654.3769691744752
 33
0.0
  0
SOLID
  5
178
330
171
100
AcDbEntity
  8
0
 62
     0
100
AcDbTrace
 10
1851.746676905139
 20
654.4069691744752
 30
0.0
 11
1851.746676905139
 21
654.3469691744753
 31
0.0
 12
1851.566676905139
 22
654.3769691744752
 32
0.0
 13
1851.566676905139
 23
654.3769691744752
 33
0.0
  0
MTEXT
  5
179
330
171
100
AcDbEntity
  8
0
 62
     0
100
AcDbMText
 10
1889.066676905139
 20
654.3769691744752
 30
0.0
 40
15.0
 41
0.0
 46
0.0
 71
     5
 72
     1
  1
\A1;75.0
 73
     1
 44
1.0
  0
POINT
  5
17A
330
171
100
AcDbEntity
  8
Defpoints
 62
     0
100
AcDbPoint
 10
1926.566676905139
 20
660.3006236029933
 30
0.0
  0
POINT
  5
17B
330
171
100
AcDbEntity
  8
Defpoints
 62
     0
100
AcDbPoint
 10
1851.566676905139
 20
660.3006236029933
 30
0.0
  0
POINT
  5
17C
330
171
100
AcDbEntity
  8
Defpoints
 62
     0
100
AcDbPoint
 10
1851.566676905139
 20
654.3769691744752
 30
0.0
  0
ENDBLK
  5
17D
330
171
100
AcDbEntity
  8
0
100
AcDbBlockEnd
  0
BLOCK
  5
17F
330
17E
100
AcDbEntity
  8
0
100
AcDbBlockBegin
  2
*D8
 70
     1
 10
0.0
 20
0.0
 30
0.0
  3
*D8
  1

  0
LINE
  5
180
330
17E
100
AcDbEntity
  8
0
 62
     0
370
    -2
100
AcDbLine
 10
1926.566676905139
 20
267.8066927333376
 30
0.0
 11
1926.566676905139
 21
269.5520119593205
 31
0.0
  0
LINE
  5
181
330
17E
100
AcDbEntity
  8
0
 62
     0
370
    -2
100
AcDbLine
 10
1851.566676905139
 20
267.8066927333376
 30
0.0
 11
1851.566676905139
 21
269.5520119593205
 31
0.0
  0
LINE
  5
182
330
17E
100
AcDbEntity
  8
0
 62
     0
370
    -2
100
AcDbLine
 10
1926.38667690514
 20
269.3720119593205
 30
0.0
 11
1910.406676905139
 21
269.3720119593205
 31
0.0
  0
LINE
  5
183
330
17E
100
AcDbEntity
  8
0
 62
     0
370
    -2
100
AcDbLine
 10
1851.74667690514
 20
269.3720119593205
 30
0.0
 11
1867.72667690514
 21
269.3720119593205
 31
0.0
  0
SOLID
  5
184
330
17E
100
AcDbEntity
  8
0
 62
     0
100
AcDbTrace
 10
1926.38667690514
 20
269.4020119593205
 30
0.0
 11
1926.38667690514
 21
269.3420119593205
 31
0.0
 12
1926.566676905139
 22
269.3720119593205
 32
0.0
 13
1926.566676905139
 23
269.3720119593205
 33
0.0
  0
SOLID
  5
185
330
17E
100
AcDbEntity
  8
0
 62
     0
100
AcDbTrace
 10
1851.74667690514
 20
269.4020119593205
 30
0.0
 11
1851.74667690514
 21
269.3420119593205
 31
0.0
 12
1851.566676905139
 22
269.3720119593205
 32
0.0
 13
1851.566676905139
 23
269.3720119593205
 33
0.0
  0
MTEXT
  5
186
330
17E
100
AcDbEntity
  8
0
 62
     0
100
AcDbMText
 10
1889.066676905139
 20
269.3720119593205
 30
0.0
 40
15.0
 41
0.0
 46
0.0
 71
     5
 72
     1
  1
\A1;75.0
 73
     1
 44
1.0
  0
POINT
  5
187
330
17E
100
AcDbEntity
  8
Defpoints
 62
     0
100
AcDbPoint
 10
1926.566676905139
 20
267.7441927333376
 30
0.0
  0
POINT
  5
188
330
17E
100
AcDbEntity
  8
Defpoints
 62
     0
100
AcDbPoint
 10
1851.566676905139
 20
267.7441927333376
 30
0.0
  0
POINT
  5
189
330
17E
100
AcDbEntity
  8
Defpoints
 62
     0
100
AcDbPoint
 10
1851.566676905139
 20
269.3720119593205
 30
0.0
  0
ENDBLK
  5
18A
330
17E
100
AcDbEntity
  8
0
100
AcDbBlockEnd
  0
BLOCK
  5
18C
330
18B
100
AcDbEntity
  8
0
100
AcDbBlockBegin
  2
*D9
 70
     1
 10
0.0
 20
0.0
 30
0.0
  3
*D9
  1

  0
LINE
  5
18D
330
18B
100
AcDbEntity
  8
0
 62
     0
370
    -2
100
AcDbLine
 10
1927.56667690514
 20
430.0849033686207
 30
0.0
 11
1927.56667690514
 21
452.0698523178256
 31
0.0
  0
LINE
  5
18E
330
18B
100
AcDbEntity
  8
0
 62
     0
370
    -2
100
AcDbLine
 10
1845.566676905139
 20
430.0849033686203
 30
0.0
 11
1845.566676905139
 21
452.0698523178256
 31
0.0
  0
LINE
  5
18F
330
18B
100
AcDbEntity
  8
0
 62
     0
370
    -2
100
AcDbLine
 10
1927.38667690514
 20
451.8898523178257
 30
0.0
 11
1907.90667690514
 21
451.8898523178257
 31
0.0
  0
LINE
  5
190
330
18B
100
AcDbEntity
  8
0
 62
     0
370
    -2
100
AcDbLine
 10
1845.74667690514
 20
451.8898523178257
 30
0.0
 11
1865.226676905139
 21
451.8898523178257
 31
0.0
  0
SOLID
  5
191
330
18B
100
AcDbEntity
  8
0
 62
     0
100
AcDbTrace
 10
1927.38667690514
 20
451.9198523178257
 30
0.0
 11
1927.38667690514
 21
451.8598523178257
 31
0.0
 12
1927.56667690514
 22
451.8898523178257
 32
0.0
 13
1927.56667690514
 23
451.8898523178257
 33
0.0
  0
SOLID
  5
192
330
18B
100
AcDbEntity
  8
0
 62
     0
100
AcDbTrace
 10
1845.74667690514
 20
451.9198523178257
 30
0.0
 11
1845.74667690514
 21
451.8598523178257
 31
0.0
 12
1845.566676905139
 22
451.8898523178257
 32
0.0
 13
1845.566676905139
 23
451.8898523178257
 33
0.0
  0
MTEXT
  5
193
330
18B
100
AcDbEntity
  8
0
 62
     0
100
AcDbMText
 10
1886.56667690514
 20
451.8898523178257
 30
0.0
 40
15.0
 41
0.0
 46
0.0
 71
     5
 72
     1
  1
\A1;82.0
 73
     1
 44
1.0
  0
POINT
  5
194
330
18B
100
AcDbEntity
  8
Defpoints
 62
     0
100
AcDbPoint
 10
1927.56667690514
 20
430.0224033686204
 30
0.0
  0
POINT
  5
195
330
18B
100
AcDbEntity
  8
Defpoints
 62
     0
100
AcDbPoint
 10
1845.566676905139
 20
430.0224033686203
 30
0.0
  0
POINT
  5
196
330
18B
100
AcDbEntity
  8
Defpoints
 62
     0
100
AcDbPoint
 10
1845.566676905139
 20
451.8898523178257
 30
0.0
  0
ENDBLK
  5
197
330
18B
100
AcDbEntity
  8
0
100
AcDbBlockEnd
  0
BLOCK
  5
199
330
198
100
AcDbEntity
  8
0
100
AcDbBlockBegin
  2
*D10
 70
     1
 10
0.0
 20
0.0
 30
0.0
  3
*D10
  1

  0
LINE
  5
19A
330
198
100
AcDbEntity
  8
0
 62
     0
370
    -2
100
AcDbLine
 10
1793.56667690514
 20
150.2657002599599
 30
0.0
 11
1793.56667690514
 21
64.99459515651381
 31
0.0
  0
LINE
  5
19B
330
198
100
AcDbEntity
  8
0
 62
     0
370
    -2
100
AcDbLine
 10
2319.566676905139
 20
150.2657002599599
 30
0.0
 11
2319.566676905139
 21
64.99459515651381
 31
0.0
  0
LINE
  5
19C
330
198
100
AcDbEntity
  8
0
 62
     0
370
    -2
100
AcDbLine
 10
1793.74667690514
 20
65.17459515651381
 30
0.0
 11
2027.72667690514
 21
65.17459515651381
 31
0.0
  0
LINE
  5
19D
330
198
100
AcDbEntity
  8
0
 62
     0
370
    -2
100
AcDbLine
 10
2319.38667690514
 20
65.17459515651381
 30
0.0
 11
2085.40667690514
 21
65.17459515651381
 31
0.0
  0
SOLID
  5
19E
330
198
100
AcDbEntity
  8
0
 62
     0
100
AcDbTrace
 10
1793.74667690514
 20
65.20459515651381
 30
0.0
 11
1793.74667690514
 21
65.14459515651381
 31
0.0
 12
1793.56667690514
 22
65.17459515651381
 32
0.0
 13
1793.56667690514
 23
65.17459515651381
 33
0.0
  0
SOLID
  5
19F
330
198
100
AcDbEntity
  8
0
 62
     0
100
AcDbTrace
 10
2319.38667690514
 20
65.20459515651381
 30
0.0
 11
2319.38667690514
 21
65.14459515651381
 31
0.0
 12
2319.566676905139
 22
65.17459515651381
 32
0.0
 13
2319.566676905139
 23
65.17459515651381
 33
0.0
  0
MTEXT
  5
1A0
330
198
100
AcDbEntity
  8
0
 62
     0
100
AcDbMText
 10
2056.56667690514
 20
65.17459515651381
 30
0.0
 40
15.0
 41
0.0
 46
0.0
 71
     5
 72
     1
  1
\A1;526.0
 73
     1
 44
1.0
  0
POINT
  5
1A1
330
198
100
AcDbEntity
  8
Defpoints
 62
     0
100
AcDbPoint
 10
1793.56667690514
 20
150.3282002599599
 30
0.0
  0
POINT
  5
1A2
330
198
100
AcDbEntity
  8
Defpoints
 62
     0
100
AcDbPoint
 10
2319.566676905139
 20
150.3282002599599
 30
0.0
  0
POINT
  5
1A3
330
198
100
AcDbEntity
  8
Defpoints
 62
     0
100
AcDbPoint
 10
2319.566676905139
 20
65.17459515651381
 30
0.0
  0
ENDBLK
  5
1A4
330
198
100
AcDbEntity
  8
0
100
AcDbBlockEnd
  0
BLOCK
  5
1A6
330
1A5
100
AcDbEntity
  8
0
100
AcDbBlockBegin
  2
*D11
 70
     1
 10
0.0
 20
0.0
 30
0.0
  3
*D11
  1

  0
LINE
  5
1A7
330
1A5
100
AcDbEntity
  8
0
 62
     0
370
    -2
100
AcDbLine
 10
2180.734916876108
 20
95.30062360299329
 30
0.0
 11
2408.609886290146
 21
95.3006236029932
 31
0.0
  0
LINE
  5
1A8
330
1A5
100
AcDbEntity
  8
0
 62
     0
370
    -2
100
AcDbLine
 10
2185.629176905139
 20
944.3006236029933
 30
0.0
 11
2408.609886290146
 21
944.300623602993
 31
0.0
  0
LINE
  5
1A9
330
1A5
100
AcDbEntity
  8
0
 62
     0
370
    -2
100
AcDbLine
 10
2408.429886290146
 20
95.48062360299322
 30
0.0
 11
2408.429886290146
 21
512.2106236029931
 31
0.0
  0
LINE
  5
1AA
330
1A5
100
AcDbEntity
  8
0
 62
     0
370
    -2
100
AcDbLine
 10
2408.429886290146
 20
944.1206236029927
 30
0.0
 11
2408.429886290146
 21
527.390623602993
 31
0.0
  0
SOLID
  5
1AB
330
1A5
100
AcDbEntity
  8
0
 62
     0
100
AcDbTrace
 10
2408.399886290146
 20
95.48062360299322
 30
0.0
 11
2408.459886290146
 21
95.48062360299322
 31
0.0
 12
2408.429886290146
 22
95.3006236029932
 32
0.0
 13
2408.429886290146
 23
95.3006236029932
 33
0.0
  0
SOLID
  5
1AC
330
1A5
100
AcDbEntity
  8
0
 62
     0
100
AcDbTrace
 10
2408.399886290146
 20
944.1206236029927
 30
0.0
 11
2408.459886290146
 21
944.1206236029927
 31
0.0
 12
2408.429886290146
 22
944.300623602993
 32
0.0
 13
2408.429886290146
 23
944.300623602993
 33
0.0
  0
MTEXT
  5
1AD
330
1A5
100
AcDbEntity
  8
0
 62
     0
100
AcDbMText
 10
2408.429886290146
 20
519.8006236029936
 30
0.0
 40
15.0
 41
0.0
 46
0.0
 71
     5
 72
     1
  1
\A1;849.0
 73
     1
 44
1.0
  0
POINT
  5
1AE
330
1A5
100
AcDbEntity
  8
Defpoints
 62
     0
100
AcDbPoint
 10
2180.672416876108
 20
95.30062360299329
 30
0.0
  0
POINT
  5
1AF
330
1A5
100
AcDbEntity
  8
Defpoints
 62
     0
100
AcDbPoint
 10
2185.56667690514
 20
944.3006236029933
 30
0.0
  0
POINT
  5
1B0
330
1A5
100
AcDbEntity
  8
Defpoints
 62
     0
100
AcDbPoint
 10
2408.429886290146
 20
944.300623602993
 30
0.0
  0
ENDBLK
  5
1B1
330
1A5
100
AcDbEntity
  8
0
100
AcDbBlockEnd
  0
BLOCK
  5
1B3
330
1B2
100
AcDbEntity
  8
0
100
AcDbBlockBegin
  2
*D12
 70
     1
 10
0.0
 20
0.0
 30
0.0
  3
*D12
  1

  0
LINE
  5
1B4
330
1B2
100
AcDbEntity
  8
0
 62
     0
370
    -2
100
AcDbLine
 10
1967.602276814259
 20
-331.8972923835037
 30
0.0
 11
1967.602276814259
 21
-397.8456385483554
 31
0.0
  0
LINE
  5
1B5
330
1B2
100
AcDbEntity
  8
0
 62
     0
370
    -2
100
AcDbLine
 10
2217.60227681426
 20
-331.8972923835037
 30
0.0
 11
2217.60227681426
 21
-397.8456385483554
 31
0.0
  0
LINE
  5
1B6
330
1B2
100
AcDbEntity
  8
0
 62
     0
370
    -2
100
AcDbLine
 10
1967.78227681426
 20
-397.6656385483554
 30
0.0
 11
2065.01227681426
 21
-397.6656385483554
 31
0.0
  0
LINE
  5
1B7
330
1B2
100
AcDbEntity
  8
0
 62
     0
370
    -2
100
AcDbLine
 10
2217.422276814261
 20
-397.6656385483554
 30
0.0
 11
2120.192276814261
 21
-397.6656385483554
 31
0.0
  0
SOLID
  5
1B8
330
1B2
100
AcDbEntity
  8
0
 62
     0
100
AcDbTrace
 10
1967.78227681426
 20
-397.6356385483555
 30
0.0
 11
1967.78227681426
 21
-397.6956385483554
 31
0.0
 12
1967.602276814259
 22
-397.6656385483554
 32
0.0
 13
1967.602276814259
 23
-397.6656385483554
 33
0.0
  0
SOLID
  5
1B9
330
1B2
100
AcDbEntity
  8
0
 62
     0
100
AcDbTrace
 10
2217.422276814261
 20
-397.6356385483555
 30
0.0
 11
2217.422276814261
 21
-397.6956385483554
 31
0.0
 12
2217.60227681426
 22
-397.6656385483554
 32
0.0
 13
2217.60227681426
 23
-397.6656385483554
 33
0.0
  0
MTEXT
  5
1BA
330
1B2
100
AcDbEntity
  8
0
 62
     0
100
AcDbMText
 10
2092.60227681426
 20
-397.6656385483554
 30
0.0
 40
15.0
 41
0.0
 46
0.0
 71
     5
 72
     1
  1
\A1;250.0
 73
     1
 44
1.0
  0
POINT
  5
1BB
330
1B2
100
AcDbEntity
  8
Defpoints
 62
     0
100
AcDbPoint
 10
1967.602276814259
 20
-331.8347923835037
 30
0.0
  0
POINT
  5
1BC
330
1B2
100
AcDbEntity
  8
Defpoints
 62
     0
100
AcDbPoint
 10
2217.60227681426
 20
-331.8347923835037
 30
0.0
  0
POINT
  5
1BD
330
1B2
100
AcDbEntity
  8
Defpoints
 62
     0
100
AcDbPoint
 10
2217.60227681426
 20
-397.6656385483554
 30
0.0
  0
ENDBLK
  5
1BE
330
1B2
100
AcDbEntity
  8
0
100
AcDbBlockEnd
  0
BLOCK
  5
1C0
330
1BF
100
AcDbEntity
  8
0
100
AcDbBlockBegin
  2
*D13
 70
     1
 10
0.0
 20
0.0
 30
0.0
  3
*D13
  1

  0
LINE
  5
1C1
330
1BF
100
AcDbEntity
  8
0
 62
     0
370
    -2
100
AcDbLine
 10
2180.16477681426
 20
-369.3347923835033
 30
0.0
 11
2259.385957312506
 21
-369.3347923835033
 31
0.0
  0
LINE
  5
1C2
330
1BF
100
AcDbEntity
  8
0
 62
     0
370
    -2
100
AcDbLine
 10
2180.16477681426
 20
-119.3347923835038
 30
0.0
 11
2259.385957312506
 21
-119.3347923835038
 31
0.0
  0
LINE
  5
1C3
330
1BF
100
AcDbEntity
  8
0
 62
     0
370
    -2
100
AcDbLine
 10
2259.205957312506
 20
-369.1547923835033
 30
0.0
 11
2259.205957312506
 21
-251.9247923835036
 31
0.0
  0
LINE
  5
1C4
330
1BF
100
AcDbEntity
  8
0
 62
     0
370
    -2
100
AcDbLine
 10
2259.205957312506
 20
-119.5147923835038
 30
0.0
 11
2259.205957312506
 21
-236.7447923835035
 31
0.0
  0
SOLID
  5
1C5
330
1BF
100
AcDbEntity
  8
0
 62
     0
100
AcDbTrace
 10
2259.175957312506
 20
-369.1547923835033
 30
0.0
 11
2259.235957312506
 21
-369.1547923835033
 31
0.0
 12
2259.205957312506
 22
-369.3347923835033
 32
0.0
 13
2259.205957312506
 23
-369.3347923835033
 33
0.0
  0
SOLID
  5
1C6
330
1BF
100
AcDbEntity
  8
0
 62
     0
100
AcDbTrace
 10
2259.175957312506
 20
-119.5147923835038
 30
0.0
 11
2259.235957312506
 21
-119.5147923835038
 31
0.0
 12
2259.205957312506
 22
-119.3347923835038
 32
0.0
 13
2259.205957312506
 23
-119.3347923835038
 33
0.0
  0
MTEXT
  5
1C7
330
1BF
100
AcDbEntity
  8
0
 62
     0
100
AcDbMText
 10
2259.205957312506
 20
-244.3347923835032
 30
0.0
 40
15.0
 41
0.0
 46
0.0
 71
     5
 72
     1
  1
\A1;250.0
 73
     1
 44
1.0
  0
POINT
  5
1C8
330
1BF
100
AcDbEntity
  8
Defpoints
 62
     0
100
AcDbPoint
 10
2180.10227681426
 20
-369.3347923835033
 30
0.0
  0
POINT
  5
1C9
330
1BF
100
AcDbEntity
  8
Defpoints
 62
     0
100
AcDbPoint
 10
2180.10227681426
 20
-119.3347923835038
 30
0.0
  0
POINT
  5
1CA
330
1BF
100
AcDbEntity
  8
Defpoints
 62
     0
100
AcDbPoint
 10
2259.205957312506
 20
-119.3347923835038
 30
0.0
  0
ENDBLK
  5
1CB
330
1BF
100
AcDbEntity
  8
0
100
AcDbBlockEnd
  0
BLOCK
  5
3C9
330
3BE
100
AcDbEntity
  8
0
100
AcDbBlockBegin
  2
*D14
 70
     1
 10
0.0
 20
0.0
 30
0.0
  3
*D14
  1

  0
LINE
  5
3CB
330
3BE
100
AcDbEntity
  8
0
 62
     0
370
    -2
100
AcDbLine
 10
1354.73142281146
 20
710.7605555436991
 30
0.0
 11
1354.73142281146
 21
714.2442178631869
 31
0.0
  0
LINE
  5
3CC
330
3BE
100
AcDbEntity
  8
0
 62
     0
370
    -2
100
AcDbLine
 10
1614.731422811459
 20
710.7605555436991
 30
0.0
 11
1614.731422811459
 21
714.2442178631869
 31
0.0
  0
LINE
  5
3CD
330
3BE
100
AcDbEntity
  8
0
 62
     0
370
    -2
100
AcDbLine
 10
1354.91142281146
 20
714.0642178631869
 30
0.0
 11
1457.14142281146
 21
714.0642178631869
 31
0.0
  0
LINE
  5
3CE
330
3BE
100
AcDbEntity
  8
0
 62
     0
370
    -2
100
AcDbLine
 10
1614.551422811459
 20
714.0642178631869
 30
0.0
 11
1512.321422811459
 21
714.0642178631869
 31
0.0
  0
SOLID
  5
3CF
330
3BE
100
AcDbEntity
  8
0
 62
     0
100
AcDbTrace
 10
1354.91142281146
 20
714.0942178631869
 30
0.0
 11
1354.91142281146
 21
714.0342178631869
 31
0.0
 12
1354.73142281146
 22
714.0642178631869
 32
0.0
 13
1354.73142281146
 23
714.0642178631869
 33
0.0
  0
SOLID
  5
3D0
330
3BE
100
AcDbEntity
  8
0
 62
     0
100
AcDbTrace
 10
1614.551422811459
 20
714.0942178631869
 30
0.0
 11
1614.551422811459
 21
714.0342178631869
 31
0.0
 12
1614.731422811459
 22
714.0642178631869
 32
0.0
 13
1614.731422811459
 23
714.0642178631869
 33
0.0
  0
MTEXT
  5
3D1
330
3BE
100
AcDbEntity
  8
0
 62
     0
100
AcDbMText
 10
1484.731422811459
 20
714.0642178631869
 30
0.0
 40
15.0
 41
0.0
 46
0.0
 71
     5
 72
     1
  1
\A1;260.0
 73
     1
 44
1.0
  0
POINT
  5
3D2
330
3BE
100
AcDbEntity
  8
Defpoints
 62
     0
100
AcDbPoint
 10
1354.73142281146
 20
710.6980555436991
 30
0.0
  0
POINT
  5
3D3
330
3BE
100
AcDbEntity
  8
Defpoints
 62
     0
100
AcDbPoint
 10
1614.731422811459
 20
710.6980555436991
 30
0.0
  0
POINT
  5
3D4
330
3BE
100
AcDbEntity
  8
Defpoints
 62
     0
100
AcDbPoint
 10
1614.731422811459
 20
714.0642178631869
 30
0.0
  0
ENDBLK
  5
3CA
330
3BE
100
AcDbEntity
  8
0
100
AcDbBlockEnd
  0
BLOCK
  5
3E0
330
3D5
100
AcDbEntity
  8
0
100
AcDbBlockBegin
  2
*D15
 70
     1
 10
0.0
 20
0.0
 30
0.0
  3
*D15
  1

  0
LINE
  5
471
330
3D5
100
AcDbEntity
  8
0
 62
     0
370
    -2
100
AcDbLine
 10
1577.800804013592
 20
897.122674377092
 30
0.0
 11
1577.683304013592
 21
897.122674377092
 31
0.0
  0
LINE
  5
472
330
3D5
100
AcDbEntity
  8
0
 62
     0
370
    -2
100
AcDbLine
 10
1577.800804013592
 20
637.1226743770919
 30
0.0
 11
1577.683304013592
 21
637.1226743770919
 31
0.0
  0
LINE
  5
473
330
3D5
100
AcDbEntity
  8
0
 62
     0
370
    -2
100
AcDbLine
 10
1577.863304013592
 20
896.942674377092
 30
0.0
 11
1577.863304013592
 21
774.712674377092
 31
0.0
  0
LINE
  5
474
330
3D5
100
AcDbEntity
  8
0
 62
     0
370
    -2
100
AcDbLine
 10
1577.863304013592
 20
637.3026743770918
 30
0.0
 11
1577.863304013592
 21
759.5326743770916
 31
0.0
  0
SOLID
  5
475
330
3D5
100
AcDbEntity
  8
0
 62
     0
100
AcDbTrace
 10
1577.833304013593
 20
896.942674377092
 30
0.0
 11
1577.893304013592
 21
896.942674377092
 31
0.0
 12
1577.863304013592
 22
897.122674377092
 32
0.0
 13
1577.863304013592
 23
897.122674377092
 33
0.0
  0
SOLID
  5
476
330
3D5
100
AcDbEntity
  8
0
 62
     0
100
AcDbTrace
 10
1577.833304013593
 20
637.3026743770918
 30
0.0
 11
1577.893304013592
 21
637.3026743770918
 31
0.0
 12
1577.863304013592
 22
637.1226743770919
 32
0.0
 13
1577.863304013592
 23
637.1226743770919
 33
0.0
  0
MTEXT
  5
477
330
3D5
100
AcDbEntity
  8
0
 62
     0
100
AcDbMText
 10
1577.863304013592
 20
767.1226743770922
 30
0.0
 40
15.0
 41
0.0
 46
0.0
 71
     5
 72
     1
  1
\A1;260.0
 73
     1
 44
1.0
  0
POINT
  5
478
330
3D5
100
AcDbEntity
  8
Defpoints
 62
     0
100
AcDbPoint
 10
1577.863304013592
 20
897.122674377092
 30
0.0
  0
POINT
  5
479
330
3D5
100
AcDbEntity
  8
Defpoints
 62
     0
100
AcDbPoint
 10
1577.863304013592
 20
637.1226743770919
 30
0.0
  0
POINT
  5
47A
330
3D5
100
AcDbEntity
  8
Defpoints
 62
     0
100
AcDbPoint
 10
1577.863304013592
 20
637.1226743770919
 30
0.0
  0
ENDBLK
  5
3E1
330
3D5
100
AcDbEntity
  8
0
100
AcDbBlockEnd
  0
BLOCK
  5
3ED
330
3E2
100
AcDbEntity
  8
0
100
AcDbBlockBegin
  2
*D16
 70
     1
 10
0.0
 20
0.0
 30
0.0
  3
*D16
  1

  0
LINE
  5
3E3
330
3E2
100
AcDbEntity
  8
0
 62
     0
370
    -2
100
AcDbLine
 10
1484.66892281146
 20
1052.122674377092
 30
0.0
 11
1470.688964670427
 21
1052.122674377092
 31
0.0
  0
LINE
  5
3E4
330
3E2
100
AcDbEntity
  8
0
 62
     0
370
    -2
100
AcDbLine
 10
1484.66892281146
 20
897.122674377092
 30
0.0
 11
1470.688964670427
 21
897.122674377092
 31
0.0
  0
LINE
  5
3E5
330
3E2
100
AcDbEntity
  8
0
 62
     0
370
    -2
100
AcDbLine
 10
1470.868964670428
 20
1051.942674377092
 30
0.0
 11
1470.868964670428
 21
982.2126743770919
 31
0.0
  0
LINE
  5
3E6
330
3E2
100
AcDbEntity
  8
0
 62
     0
370
    -2
100
AcDbLine
 10
1470.868964670428
 20
897.3026743770919
 30
0.0
 11
1470.868964670428
 21
967.0326743770916
 31
0.0
  0
SOLID
  5
3E7
330
3E2
100
AcDbEntity
  8
0
 62
     0
100
AcDbTrace
 10
1470.838964670427
 20
1051.942674377092
 30
0.0
 11
1470.898964670428
 21
1051.942674377092
 31
0.0
 12
1470.868964670428
 22
1052.122674377092
 32
0.0
 13
1470.868964670428
 23
1052.122674377092
 33
0.0
  0
SOLID
  5
3E8
330
3E2
100
AcDbEntity
  8
0
 62
     0
100
AcDbTrace
 10
1470.838964670427
 20
897.3026743770919
 30
0.0
 11
1470.898964670428
 21
897.3026743770919
 31
0.0
 12
1470.868964670428
 22
897.122674377092
 32
0.0
 13
1470.868964670428
 23
897.122674377092
 33
0.0
  0
MTEXT
  5
3E9
330
3E2
100
AcDbEntity
  8
0
 62
     0
100
AcDbMText
 10
1470.868964670427
 20
974.6226743770916
 30
0.0
 40
15.0
 41
0.0
 46
0.0
 71
     5
 72
     1
  1
\A1;155.0
 73
     1
 44
1.0
  0
POINT
  5
3EA
330
3E2
100
AcDbEntity
  8
Defpoints
 62
     0
100
AcDbPoint
 10
1484.73142281146
 20
1052.122674377092
 30
0.0
  0
POINT
  5
3EB
330
3E2
100
AcDbEntity
  8
Defpoints
 62
     0
100
AcDbPoint
 10
1484.73142281146
 20
897.122674377092
 30
0.0
  0
POINT
  5
3EC
330
3E2
100
AcDbEntity
  8
Defpoints
 62
     0
100
AcDbPoint
 10
1470.868964670428
 20
897.122674377092
 30
0.0
  0
ENDBLK
  5
3EE
330
3E2
100
AcDbEntity
  8
0
100
AcDbBlockEnd
  0
BLOCK
  5
3FA
330
3EF
100
AcDbEntity
  8
0
100
AcDbBlockBegin
  2
*D17
 70
     1
 10
0.0
 20
0.0
 30
0.0
  3
*D17
  1

  0
LINE
  5
485
330
3EF
100
AcDbEntity
  8
0
 62
     0
370
    -2
100
AcDbLine
 10
1614.731422811459
 20
1182.060174377091
 30
0.0
 11
1614.731422811459
 21
1176.019019948574
 31
0.0
  0
LINE
  5
486
330
3EF
100
AcDbEntity
  8
0
 62
     0
370
    -2
100
AcDbLine
 10
1689.73142281146
 20
1182.060174377091
 30
0.0
 11
1689.73142281146
 21
1176.019019948574
 31
0.0
  0
LINE
  5
487
330
3EF
100
AcDbEntity
  8
0
 62
     0
370
    -2
100
AcDbLine
 10
1614.91142281146
 20
1176.199019948573
 30
0.0
 11
1630.89142281146
 21
1176.199019948573
 31
0.0
  0
LINE
  5
488
330
3EF
100
AcDbEntity
  8
0
 62
     0
370
    -2
100
AcDbLine
 10
1689.551422811461
 20
1176.199019948573
 30
0.0
 11
1673.57142281146
 21
1176.199019948573
 31
0.0
  0
SOLID
  5
489
330
3EF
100
AcDbEntity
  8
0
 62
     0
100
AcDbTrace
 10
1614.91142281146
 20
1176.229019948574
 30
0.0
 11
1614.91142281146
 21
1176.169019948574
 31
0.0
 12
1614.731422811459
 22
1176.199019948573
 32
0.0
 13
1614.731422811459
 23
1176.199019948573
 33
0.0
  0
SOLID
  5
48A
330
3EF
100
AcDbEntity
  8
0
 62
     0
100
AcDbTrace
 10
1689.551422811461
 20
1176.229019948574
 30
0.0
 11
1689.551422811461
 21
1176.169019948574
 31
0.0
 12
1689.73142281146
 22
1176.199019948573
 32
0.0
 13
1689.73142281146
 23
1176.199019948573
 33
0.0
  0
MTEXT
  5
48B
330
3EF
100
AcDbEntity
  8
0
 62
     0
100
AcDbMText
 10
1652.23142281146
 20
1176.199019948573
 30
0.0
 40
15.0
 41
0.0
 46
0.0
 71
     5
 72
     1
  1
\A1;75.0
 73
     1
 44
1.0
  0
POINT
  5
48C
330
3EF
100
AcDbEntity
  8
Defpoints
 62
     0
100
AcDbPoint
 10
1614.731422811459
 20
1182.122674377092
 30
0.0
  0
POINT
  5
48D
330
3EF
100
AcDbEntity
  8
Defpoints
 62
     0
100
AcDbPoint
 10
1689.73142281146
 20
1182.122674377092
 30
0.0
  0
POINT
  5
48E
330
3EF
100
AcDbEntity
  8
Defpoints
 62
     0
100
AcDbPoint
 10
1689.73142281146
 20
1176.199019948573
 30
0.0
  0
ENDBLK
  5
3FB
330
3EF
100
AcDbEntity
  8
0
100
AcDbBlockEnd
  0
BLOCK
  5
407
330
3FC
100
AcDbEntity
  8
0
100
AcDbBlockBegin
  2
*D18
 70
     1
 10
0.0
 20
0.0
 30
0.0
  3
*D18
  1

  0
LINE
  5
3FD
330
3FC
100
AcDbEntity
  8
0
 62
     0
370
    -2
100
AcDbLine
 10
1614.731422811459
 20
789.6287435074362
 30
0.0
 11
1614.731422811459
 21
791.3740627334192
 31
0.0
  0
LINE
  5
3FE
330
3FC
100
AcDbEntity
  8
0
 62
     0
370
    -2
100
AcDbLine
 10
1689.731422811459
 20
789.6287435074362
 30
0.0
 11
1689.731422811459
 21
791.3740627334192
 31
0.0
  0
LINE
  5
3FF
330
3FC
100
AcDbEntity
  8
0
 62
     0
370
    -2
100
AcDbLine
 10
1614.91142281146
 20
791.1940627334192
 30
0.0
 11
1630.89142281146
 21
791.1940627334192
 31
0.0
  0
LINE
  5
400
330
3FC
100
AcDbEntity
  8
0
 62
     0
370
    -2
100
AcDbLine
 10
1689.551422811459
 20
791.1940627334192
 30
0.0
 11
1673.571422811459
 21
791.1940627334192
 31
0.0
  0
SOLID
  5
401
330
3FC
100
AcDbEntity
  8
0
 62
     0
100
AcDbTrace
 10
1614.91142281146
 20
791.2240627334191
 30
0.0
 11
1614.91142281146
 21
791.1640627334191
 31
0.0
 12
1614.731422811459
 22
791.1940627334192
 32
0.0
 13
1614.731422811459
 23
791.1940627334192
 33
0.0
  0
SOLID
  5
402
330
3FC
100
AcDbEntity
  8
0
 62
     0
100
AcDbTrace
 10
1689.551422811459
 20
791.2240627334191
 30
0.0
 11
1689.551422811459
 21
791.1640627334191
 31
0.0
 12
1689.731422811459
 22
791.1940627334192
 32
0.0
 13
1689.731422811459
 23
791.1940627334192
 33
0.0
  0
MTEXT
  5
403
330
3FC
100
AcDbEntity
  8
0
 62
     0
100
AcDbMText
 10
1652.231422811459
 20
791.1940627334192
 30
0.0
 40
15.0
 41
0.0
 46
0.0
 71
     5
 72
     1
  1
\A1;75.0
 73
     1
 44
1.0
  0
POINT
  5
404
330
3FC
100
AcDbEntity
  8
Defpoints
 62
     0
100
AcDbPoint
 10
1614.731422811459
 20
789.5662435074362
 30
0.0
  0
POINT
  5
405
330
3FC
100
AcDbEntity
  8
Defpoints
 62
     0
100
AcDbPoint
 10
1689.731422811459
 20
789.5662435074362
 30
0.0
  0
POINT
  5
406
330
3FC
100
AcDbEntity
  8
Defpoints
 62
     0
100
AcDbPoint
 10
1689.731422811459
 20
791.1940627334192
 30
0.0
  0
ENDBLK
  5
408
330
3FC
100
AcDbEntity
  8
0
100
AcDbBlockEnd
  0
BLOCK
  5
414
330
409
100
AcDbEntity
  8
0
100
AcDbBlockBegin
  2
*D19
 70
     1
 10
0.0
 20
0.0
 30
0.0
  3
*D19
  1

  0
LINE
  5
47B
330
409
100
AcDbEntity
  8
0
 62
     0
370
    -2
100
AcDbLine
 10
1613.73142281146
 20
951.9069541427194
 30
0.0
 11
1613.73142281146
 21
973.8919030919245
 31
0.0
  0
LINE
  5
47C
330
409
100
AcDbEntity
  8
0
 62
     0
370
    -2
100
AcDbLine
 10
1695.73142281146
 20
951.9069541427192
 30
0.0
 11
1695.73142281146
 21
973.8919030919245
 31
0.0
  0
LINE
  5
47D
330
409
100
AcDbEntity
  8
0
 62
     0
370
    -2
100
AcDbLine
 10
1613.911422811459
 20
973.7119030919243
 30
0.0
 11
1633.39142281146
 21
973.7119030919243
 31
0.0
  0
LINE
  5
47E
330
409
100
AcDbEntity
  8
0
 62
     0
370
    -2
100
AcDbLine
 10
1695.551422811459
 20
973.7119030919243
 30
0.0
 11
1676.07142281146
 21
973.7119030919243
 31
0.0
  0
SOLID
  5
47F
330
409
100
AcDbEntity
  8
0
 62
     0
100
AcDbTrace
 10
1613.911422811459
 20
973.7419030919244
 30
0.0
 11
1613.911422811459
 21
973.6819030919244
 31
0.0
 12
1613.73142281146
 22
973.7119030919243
 32
0.0
 13
1613.73142281146
 23
973.7119030919243
 33
0.0
  0
SOLID
  5
480
330
409
100
AcDbEntity
  8
0
 62
     0
100
AcDbTrace
 10
1695.551422811459
 20
973.7419030919244
 30
0.0
 11
1695.551422811459
 21
973.6819030919244
 31
0.0
 12
1695.73142281146
 22
973.7119030919243
 32
0.0
 13
1695.73142281146
 23
973.7119030919243
 33
0.0
  0
MTEXT
  5
481
330
409
100
AcDbEntity
  8
0
 62
     0
100
AcDbMText
 10
1654.73142281146
 20
973.7119030919243
 30
0.0
 40
15.0
 41
0.0
 46
0.0
 71
     5
 72
     1
  1
\A1;82.0
 73
     1
 44
1.0
  0
POINT
  5
482
330
409
100
AcDbEntity
  8
Defpoints
 62
     0
100
AcDbPoint
 10
1613.73142281146
 20
951.8444541427195
 30
0.0
  0
POINT
  5
483
330
409
100
AcDbEntity
  8
Defpoints
 62
     0
100
AcDbPoint
 10
1695.73142281146
 20
951.8444541427193
 30
0.0
  0
POINT
  5
484
330
409
100
AcDbEntity
  8
Defpoints
 62
     0
100
AcDbPoint
 10
1695.73142281146
 20
973.7119030919243
 30
0.0
  0
ENDBLK
  5
415
330
409
100
AcDbEntity
  8
0
100
AcDbBlockEnd
  0
BLOCK
  5
421
330
416
100
AcDbEntity
  8
0
100
AcDbBlockBegin
  2
*D20
 70
     1
 10
0.0
 20
0.0
 30
0.0
  3
*D20
  1

  0
LINE
  5
499
330
416
100
AcDbEntity
  8
0
 62
     0
370
    -2
100
AcDbLine
 10
1354.73142281146
 20
1182.060174377091
 30
0.0
 11
1354.73142281146
 21
1176.019019948574
 31
0.0
  0
LINE
  5
49A
330
416
100
AcDbEntity
  8
0
 62
     0
370
    -2
100
AcDbLine
 10
1279.73142281146
 20
1182.060174377091
 30
0.0
 11
1279.73142281146
 21
1176.019019948574
 31
0.0
  0
LINE
  5
49B
330
416
100
AcDbEntity
  8
0
 62
     0
370
    -2
100
AcDbLine
 10
1354.55142281146
 20
1176.199019948573
 30
0.0
 11
1338.571422811459
 21
1176.199019948573
 31
0.0
  0
LINE
  5
49C
330
416
100
AcDbEntity
  8
0
 62
     0
370
    -2
100
AcDbLine
 10
1279.91142281146
 20
1176.199019948573
 30
0.0
 11
1295.891422811459
 21
1176.199019948573
 31
0.0
  0
SOLID
  5
49D
330
416
100
AcDbEntity
  8
0
 62
     0
100
AcDbTrace
 10
1354.55142281146
 20
1176.229019948574
 30
0.0
 11
1354.55142281146
 21
1176.169019948574
 31
0.0
 12
1354.73142281146
 22
1176.199019948573
 32
0.0
 13
1354.73142281146
 23
1176.199019948573
 33
0.0
  0
SOLID
  5
49E
330
416
100
AcDbEntity
  8
0
 62
     0
100
AcDbTrace
 10
1279.91142281146
 20
1176.229019948574
 30
0.0
 11
1279.91142281146
 21
1176.169019948574
 31
0.0
 12
1279.73142281146
 22
1176.199019948573
 32
0.0
 13
1279.73142281146
 23
1176.199019948573
 33
0.0
  0
MTEXT
  5
49F
330
416
100
AcDbEntity
  8
0
 62
     0
100
AcDbMText
 10
1317.23142281146
 20
1176.199019948573
 30
0.0
 40
15.0
 41
0.0
 46
0.0
 71
     5
 72
     1
  1
\A1;75.0
 73
     1
 44
1.0
  0
POINT
  5
4A0
330
416
100
AcDbEntity
  8
Defpoints
 62
     0
100
AcDbPoint
 10
1354.73142281146
 20
1182.122674377092
 30
0.0
  0
POINT
  5
4A1
330
416
100
AcDbEntity
  8
Defpoints
 62
     0
100
AcDbPoint
 10
1279.73142281146
 20
1182.122674377092
 30
0.0
  0
POINT
  5
4A2
330
416
100
AcDbEntity
  8
Defpoints
 62
     0
100
AcDbPoint
 10
1279.73142281146
 20
1176.199019948573
 30
0.0
  0
ENDBLK
  5
422
330
416
100
AcDbEntity
  8
0
100
AcDbBlockEnd
  0
BLOCK
  5
42E
330
423
100
AcDbEntity
  8
0
100
AcDbBlockBegin
  2
*D21
 70
     1
 10
0.0
 20
0.0
 30
0.0
  3
*D21
  1

  0
LINE
  5
424
330
423
100
AcDbEntity
  8
0
 62
     0
370
    -2
100
AcDbLine
 10
1354.73142281146
 20
789.6287435074362
 30
0.0
 11
1354.73142281146
 21
791.3740627334192
 31
0.0
  0
LINE
  5
425
330
423
100
AcDbEntity
  8
0
 62
     0
370
    -2
100
AcDbLine
 10
1279.73142281146
 20
789.6287435074362
 30
0.0
 11
1279.73142281146
 21
791.3740627334192
 31
0.0
  0
LINE
  5
426
330
423
100
AcDbEntity
  8
0
 62
     0
370
    -2
100
AcDbLine
 10
1354.55142281146
 20
791.1940627334192
 30
0.0
 11
1338.57142281146
 21
791.1940627334192
 31
0.0
  0
LINE
  5
427
330
423
100
AcDbEntity
  8
0
 62
     0
370
    -2
100
AcDbLine
 10
1279.91142281146
 20
791.1940627334192
 30
0.0
 11
1295.89142281146
 21
791.1940627334192
 31
0.0
  0
SOLID
  5
428
330
423
100
AcDbEntity
  8
0
 62
     0
100
AcDbTrace
 10
1354.55142281146
 20
791.2240627334191
 30
0.0
 11
1354.55142281146
 21
791.1640627334191
 31
0.0
 12
1354.73142281146
 22
791.1940627334192
 32
0.0
 13
1354.73142281146
 23
791.1940627334192
 33
0.0
  0
SOLID
  5
429
330
423
100
AcDbEntity
  8
0
 62
     0
100
AcDbTrace
 10
1279.91142281146
 20
791.2240627334191
 30
0.0
 11
1279.91142281146
 21
791.1640627334191
 31
0.0
 12
1279.73142281146
 22
791.1940627334192
 32
0.0
 13
1279.73142281146
 23
791.1940627334192
 33
0.0
  0
MTEXT
  5
42A
330
423
100
AcDbEntity
  8
0
 62
     0
100
AcDbMText
 10
1317.23142281146
 20
791.1940627334192
 30
0.0
 40
15.0
 41
0.0
 46
0.0
 71
     5
 72
     1
  1
\A1;75.0
 73
     1
 44
1.0
  0
POINT
  5
42B
330
423
100
AcDbEntity
  8
Defpoints
 62
     0
100
AcDbPoint
 10
1354.73142281146
 20
789.5662435074362
 30
0.0
  0
POINT
  5
42C
330
423
100
AcDbEntity
  8
Defpoints
 62
     0
100
AcDbPoint
 10
1279.73142281146
 20
789.5662435074362
 30
0.0
  0
POINT
  5
42D
330
423
100
AcDbEntity
  8
Defpoints
 62
     0
100
AcDbPoint
 10
1279.73142281146
 20
791.1940627334192
 30
0.0
  0
ENDBLK
  5
42F
330
423
100
AcDbEntity
  8
0
100
AcDbBlockEnd
  0
BLOCK
  5
43B
330
430
100
AcDbEntity
  8
0
100
AcDbBlockBegin
  2
*D22
 70
     1
 10
0.0
 20
0.0
 30
0.0
  3
*D22
  1

  0
LINE
  5
48F
330
430
100
AcDbEntity
  8
0
 62
     0
370
    -2
100
AcDbLine
 10
1355.73142281146
 20
951.9069541427194
 30
0.0
 11
1355.73142281146
 21
973.8919030919245
 31
0.0
  0
LINE
  5
490
330
430
100
AcDbEntity
  8
0
 62
     0
370
    -2
100
AcDbLine
 10
1273.73142281146
 20
951.9069541427192
 30
0.0
 11
1273.73142281146
 21
973.8919030919245
 31
0.0
  0
LINE
  5
491
330
430
100
AcDbEntity
  8
0
 62
     0
370
    -2
100
AcDbLine
 10
1355.55142281146
 20
973.7119030919243
 30
0.0
 11
1336.07142281146
 21
973.7119030919243
 31
0.0
  0
LINE
  5
492
330
430
100
AcDbEntity
  8
0
 62
     0
370
    -2
100
AcDbLine
 10
1273.91142281146
 20
973.7119030919243
 30
0.0
 11
1293.39142281146
 21
973.7119030919243
 31
0.0
  0
SOLID
  5
493
330
430
100
AcDbEntity
  8
0
 62
     0
100
AcDbTrace
 10
1355.55142281146
 20
973.7419030919244
 30
0.0
 11
1355.55142281146
 21
973.6819030919244
 31
0.0
 12
1355.73142281146
 22
973.7119030919243
 32
0.0
 13
1355.73142281146
 23
973.7119030919243
 33
0.0
  0
SOLID
  5
494
330
430
100
AcDbEntity
  8
0
 62
     0
100
AcDbTrace
 10
1273.91142281146
 20
973.7419030919244
 30
0.0
 11
1273.91142281146
 21
973.6819030919244
 31
0.0
 12
1273.73142281146
 22
973.7119030919243
 32
0.0
 13
1273.73142281146
 23
973.7119030919243
 33
0.0
  0
MTEXT
  5
495
330
430
100
AcDbEntity
  8
0
 62
     0
100
AcDbMText
 10
1314.73142281146
 20
973.7119030919243
 30
0.0
 40
15.0
 41
0.0
 46
0.0
 71
     5
 72
     1
  1
\A1;82.0
 73
     1
 44
1.0
  0
POINT
  5
496
330
430
100
AcDbEntity
  8
Defpoints
 62
     0
100
AcDbPoint
 10
1355.73142281146
 20
951.8444541427195
 30
0.0
  0
POINT
  5
497
330
430
100
AcDbEntity
  8
Defpoints
 62
     0
100
AcDbPoint
 10
1273.73142281146
 20
951.8444541427193
 30
0.0
  0
POINT
  5
498
330
430
100
AcDbEntity
  8
Defpoints
 62
     0
100
AcDbPoint
 10
1273.73142281146
 20
973.7119030919243
 30
0.0
  0
ENDBLK
  5
43C
330
430
100
AcDbEntity
  8
0
100
AcDbBlockEnd
  0
BLOCK
  5
448
330
43D
100
AcDbEntity
  8
0
100
AcDbBlockBegin
  2
*D23
 70
     1
 10
0.0
 20
0.0
 30
0.0
  3
*D23
  1

  0
LINE
  5
6D3
330
43D
100
AcDbEntity
  8
0
 62
     0
370
    -2
100
AcDbLine
 10
1221.73142281146
 20
672.0877510340585
 30
0.0
 11
1221.73142281146
 21
586.8166459306122
 31
0.0
  0
LINE
  5
6D4
330
43D
100
AcDbEntity
  8
0
 62
     0
370
    -2
100
AcDbLine
 10
1749.731422811459
 20
672.0877510340585
 30
0.0
 11
1749.731422811459
 21
586.8166459306122
 31
0.0
  0
LINE
  5
6D5
330
43D
100
AcDbEntity
  8
0
 62
     0
370
    -2
100
AcDbLine
 10
1221.91142281146
 20
586.9966459306124
 30
0.0
 11
1456.891422811459
 21
586.9966459306124
 31
0.0
  0
LINE
  5
6D6
330
43D
100
AcDbEntity
  8
0
 62
     0
370
    -2
100
AcDbLine
 10
1749.551422811459
 20
586.9966459306124
 30
0.0
 11
1514.571422811459
 21
586.9966459306124
 31
0.0
  0
SOLID
  5
6D7
330
43D
100
AcDbEntity
  8
0
 62
     0
100
AcDbTrace
 10
1221.91142281146
 20
587.0266459306122
 30
0.0
 11
1221.91142281146
 21
586.9666459306124
 31
0.0
 12
1221.73142281146
 22
586.9966459306124
 32
0.0
 13
1221.73142281146
 23
586.9966459306124
 33
0.0
  0
SOLID
  5
6D8
330
43D
100
AcDbEntity
  8
0
 62
     0
100
AcDbTrace
 10
1749.551422811459
 20
587.0266459306122
 30
0.0
 11
1749.551422811459
 21
586.9666459306124
 31
0.0
 12
1749.731422811459
 22
586.9966459306124
 32
0.0
 13
1749.731422811459
 23
586.9966459306124
 33
0.0
  0
MTEXT
  5
6D9
330
43D
100
AcDbEntity
  8
0
 62
     0
100
AcDbMText
 10
1485.731422811459
 20
586.9966459306124
 30
0.0
 40
15.0
 41
0.0
 46
0.0
 71
     5
 72
     1
  1
\A1;528.0
 73
     1
 44
1.0
  0
POINT
  5
6DA
330
43D
100
AcDbEntity
  8
Defpoints
 62
     0
100
AcDbPoint
 10
1221.73142281146
 20
672.1502510340585
 30
0.0
  0
POINT
  5
6DB
330
43D
100
AcDbEntity
  8
Defpoints
 62
     0
100
AcDbPoint
 10
1749.731422811459
 20
672.1502510340585
 30
0.0
  0
POINT
  5
6DC
330
43D
100
AcDbEntity
  8
Defpoints
 62
     0
100
AcDbPoint
 10
1749.731422811459
 20
586.9966459306124
 30
0.0
  0
ENDBLK
  5
449
330
43D
100
AcDbEntity
  8
0
100
AcDbBlockEnd
  0
BLOCK
  5
455
330
44A
100
AcDbEntity
  8
0
100
AcDbBlockBegin
  2
*D24
 70
     1
 10
0.0
 20
0.0
 30
0.0
  3
*D24
  1

  0
LINE
  5
44B
330
44A
100
AcDbEntity
  8
0
 62
     0
370
    -2
100
AcDbLine
 10
1608.899662782427
 20
617.1226743770919
 30
0.0
 11
1836.774632196466
 21
617.1226743770914
 31
0.0
  0
LINE
  5
44C
330
44A
100
AcDbEntity
  8
0
 62
     0
370
    -2
100
AcDbLine
 10
1613.793922811459
 20
1466.122674377092
 30
0.0
 11
1836.774632196466
 21
1466.122674377092
 31
0.0
  0
LINE
  5
44D
330
44A
100
AcDbEntity
  8
0
 62
     0
370
    -2
100
AcDbLine
 10
1836.594632196466
 20
617.3026743770917
 30
0.0
 11
1836.594632196466
 21
1034.032674377092
 31
0.0
  0
LINE
  5
44E
330
44A
100
AcDbEntity
  8
0
 62
     0
370
    -2
100
AcDbLine
 10
1836.594632196466
 20
1465.942674377092
 30
0.0
 11
1836.594632196466
 21
1049.212674377091
 31
0.0
  0
SOLID
  5
44F
330
44A
100
AcDbEntity
  8
0
 62
     0
100
AcDbTrace
 10
1836.564632196466
 20
617.3026743770917
 30
0.0
 11
1836.624632196466
 21
617.3026743770917
 31
0.0
 12
1836.594632196466
 22
617.1226743770914
 32
0.0
 13
1836.594632196466
 23
617.1226743770914
 33
0.0
  0
SOLID
  5
450
330
44A
100
AcDbEntity
  8
0
 62
     0
100
AcDbTrace
 10
1836.564632196466
 20
1465.942674377092
 30
0.0
 11
1836.624632196466
 21
1465.942674377092
 31
0.0
 12
1836.594632196466
 22
1466.122674377092
 32
0.0
 13
1836.594632196466
 23
1466.122674377092
 33
0.0
  0
MTEXT
  5
451
330
44A
100
AcDbEntity
  8
0
 62
     0
100
AcDbMText
 10
1836.594632196466
 20
1041.622674377092
 30
0.0
 40
15.0
 41
0.0
 46
0.0
 71
     5
 72
     1
  1
\A1;849.0
 73
     1
 44
1.0
  0
POINT
  5
452
330
44A
100
AcDbEntity
  8
Defpoints
 62
     0
100
AcDbPoint
 10
1608.837162782428
 20
617.1226743770919
 30
0.0
  0
POINT
  5
453
330
44A
100
AcDbEntity
  8
Defpoints
 62
     0
100
AcDbPoint
 10
1613.73142281146
 20
1466.122674377092
 30
0.0
  0
POINT
  5
454
330
44A
100
AcDbEntity
  8
Defpoints
 62
     0
100
AcDbPoint
 10
1836.594632196466
 20
1466.122674377092
 30
0.0
  0
ENDBLK
  5
456
330
44A
100
AcDbEntity
  8
0
100
AcDbBlockEnd
  0
BLOCK
  5
462
330
457
100
AcDbEntity
  8
0
100
AcDbBlockBegin
  2
*D25
 70
     1
 10
0.0
 20
0.0
 30
0.0
  3
*D25
  1

  0
LINE
  5
458
330
457
100
AcDbEntity
  8
0
 62
     0
370
    -2
100
AcDbLine
 10
1395.76702272058
 20
189.9247583905949
 30
0.0
 11
1395.76702272058
 21
123.9764122257432
 31
0.0
  0
LINE
  5
459
330
457
100
AcDbEntity
  8
0
 62
     0
370
    -2
100
AcDbLine
 10
1645.76702272058
 20
189.9247583905949
 30
0.0
 11
1645.76702272058
 21
123.9764122257432
 31
0.0
  0
LINE
  5
45A
330
457
100
AcDbEntity
  8
0
 62
     0
370
    -2
100
AcDbLine
 10
1395.94702272058
 20
124.1564122257432
 30
0.0
 11
1493.17702272058
 21
124.1564122257432
 31
0.0
  0
LINE
  5
45B
330
457
100
AcDbEntity
  8
0
 62
     0
370
    -2
100
AcDbLine
 10
1645.58702272058
 20
124.1564122257432
 30
0.0
 11
1548.35702272058
 21
124.1564122257432
 31
0.0
  0
SOLID
  5
45C
330
457
100
AcDbEntity
  8
0
 62
     0
100
AcDbTrace
 10
1395.94702272058
 20
124.1864122257432
 30
0.0
 11
1395.94702272058
 21
124.1264122257432
 31
0.0
 12
1395.76702272058
 22
124.1564122257432
 32
0.0
 13
1395.76702272058
 23
124.1564122257432
 33
0.0
  0
SOLID
  5
45D
330
457
100
AcDbEntity
  8
0
 62
     0
100
AcDbTrace
 10
1645.58702272058
 20
124.1864122257432
 30
0.0
 11
1645.58702272058
 21
124.1264122257432
 31
0.0
 12
1645.76702272058
 22
124.1564122257432
 32
0.0
 13
1645.76702272058
 23
124.1564122257432
 33
0.0
  0
MTEXT
  5
45E
330
457
100
AcDbEntity
  8
0
 62
     0
100
AcDbMText
 10
1520.76702272058
 20
124.1564122257432
 30
0.0
 40
15.0
 41
0.0
 46
0.0
 71
     5
 72
     1
  1
\A1;250.0
 73
     1
 44
1.0
  0
POINT
  5
45F
330
457
100
AcDbEntity
  8
Defpoints
 62
     0
100
AcDbPoint
 10
1395.76702272058
 20
189.9872583905949
 30
0.0
  0
POINT
  5
460
330
457
100
AcDbEntity
  8
Defpoints
 62
     0
100
AcDbPoint
 10
1645.76702272058
 20
189.9872583905949
 30
0.0
  0
POINT
  5
461
330
457
100
AcDbEntity
  8
Defpoints
 62
     0
100
AcDbPoint
 10
1645.76702272058
 20
124.1564122257432
 30
0.0
  0
ENDBLK
  5
463
330
457
100
AcDbEntity
  8
0
100
AcDbBlockEnd
  0
BLOCK
  5
46F
330
464
100
AcDbEntity
  8
0
100
AcDbBlockBegin
  2
*D26
 70
     1
 10
0.0
 20
0.0
 30
0.0
  3
*D26
  1

  0
LINE
  5
465
330
464
100
AcDbEntity
  8
0
 62
     0
370
    -2
100
AcDbLine
 10
1608.32952272058
 20
152.4872583905954
 30
0.0
 11
1687.550703218826
 21
152.4872583905954
 31
0.0
  0
LINE
  5
466
330
464
100
AcDbEntity
  8
0
 62
     0
370
    -2
100
AcDbLine
 10
1608.32952272058
 20
402.4872583905946
 30
0.0
 11
1687.550703218826
 21
402.4872583905946
 31
0.0
  0
LINE
  5
467
330
464
100
AcDbEntity
  8
0
 62
     0
370
    -2
100
AcDbLine
 10
1687.370703218826
 20
152.6672583905954
 30
0.0
 11
1687.370703218826
 21
269.8972583905951
 31
0.0
  0
LINE
  5
468
330
464
100
AcDbEntity
  8
0
 62
     0
370
    -2
100
AcDbLine
 10
1687.370703218826
 20
402.3072583905947
 30
0.0
 11
1687.370703218826
 21
285.077258390595
 31
0.0
  0
SOLID
  5
469
330
464
100
AcDbEntity
  8
0
 62
     0
100
AcDbTrace
 10
1687.340703218826
 20
152.6672583905954
 30
0.0
 11
1687.400703218826
 21
152.6672583905954
 31
0.0
 12
1687.370703218826
 22
152.4872583905954
 32
0.0
 13
1687.370703218826
 23
152.4872583905954
 33
0.0
  0
SOLID
  5
46A
330
464
100
AcDbEntity
  8
0
 62
     0
100
AcDbTrace
 10
1687.340703218826
 20
402.3072583905947
 30
0.0
 11
1687.400703218826
 21
402.3072583905947
 31
0.0
 12
1687.370703218826
 22
402.4872583905946
 32
0.0
 13
1687.370703218826
 23
402.4872583905946
 33
0.0
  0
MTEXT
  5
46B
330
464
100
AcDbEntity
  8
0
 62
     0
100
AcDbMText
 10
1687.370703218826
 20
277.4872583905954
 30
0.0
 40
15.0
 41
0.0
 46
0.0
 71
     5
 72
     1
  1
\A1;250.0
 73
     1
 44
1.0
  0
POINT
  5
46C
330
464
100
AcDbEntity
  8
Defpoints
 62
     0
100
AcDbPoint
 10
1608.26702272058
 20
152.4872583905954
 30
0.0
  0
POINT
  5
46D
330
464
100
AcDbEntity
  8
Defpoints
 62
     0
100
AcDbPoint
 10
1608.26702272058
 20
402.4872583905946
 30
0.0
  0
POINT
  5
46E
330
464
100
AcDbEntity
  8
Defpoints
 62
     0
100
AcDbPoint
 10
1687.370703218826
 20
402.4872583905946
 30
0.0
  0
ENDBLK
  5
470
330
464
100
AcDbEntity
  8
0
100
AcDbBlockEnd
  0
BLOCK
  5
4AA
330
4A9
100
AcDbEntity
  8
0
100
AcDbBlockBegin
  2
*D27
 70
     1
 10
0.0
 20
0.0
 30
0.0
  3
*D27
  1

  0
LINE
  5
4AB
330
4A9
100
AcDbEntity
  8
0
 62
     0
370
    -2
100
AcDbLine
 10
643.9120771315526
 20
593.2402945507185
 30
0.0
 11
643.9120771315526
 21
593.3577945507185
 31
0.0
  0
LINE
  5
4AC
330
4A9
100
AcDbEntity
  8
0
 62
     0
370
    -2
100
AcDbLine
 10
720.9120771315524
 20
593.2402945507185
 30
0.0
 11
720.9120771315524
 21
593.3577945507185
 31
0.0
  0
LINE
  5
4AD
330
4A9
100
AcDbEntity
  8
0
 62
     0
370
    -2
100
AcDbLine
 10
644.0920771315526
 20
593.1777945507185
 30
0.0
 11
661.0720771315526
 21
593.1777945507185
 31
0.0
  0
LINE
  5
4AE
330
4A9
100
AcDbEntity
  8
0
 62
     0
370
    -2
100
AcDbLine
 10
720.7320771315527
 20
593.1777945507185
 30
0.0
 11
703.7520771315527
 21
593.1777945507185
 31
0.0
  0
SOLID
  5
4AF
330
4A9
100
AcDbEntity
  8
0
 62
     0
100
AcDbTrace
 10
644.0920771315526
 20
593.2077945507185
 30
0.0
 11
644.0920771315526
 21
593.1477945507185
 31
0.0
 12
643.9120771315526
 22
593.1777945507185
 32
0.0
 13
643.9120771315526
 23
593.1777945507185
 33
0.0
  0
SOLID
  5
4B0
330
4A9
100
AcDbEntity
  8
0
 62
     0
100
AcDbTrace
 10
720.7320771315527
 20
593.2077945507185
 30
0.0
 11
720.7320771315527
 21
593.1477945507185
 31
0.0
 12
720.9120771315524
 22
593.1777945507185
 32
0.0
 13
720.9120771315524
 23
593.1777945507185
 33
0.0
  0
MTEXT
  5
4B1
330
4A9
100
AcDbEntity
  8
0
 62
     0
100
AcDbMText
 10
682.4120771315526
 20
593.1777945507185
 30
0.0
 40
15.0
 41
0.0
 46
0.0
 71
     5
 72
     1
  1
\A1;77.0
 73
     1
 44
1.0
  0
POINT
  5
4B2
330
4A9
100
AcDbEntity
  8
Defpoints
 62
     0
100
AcDbPoint
 10
643.9120771315526
 20
593.1777945507185
 30
0.0
  0
POINT
  5
4B3
330
4A9
100
AcDbEntity
  8
Defpoints
 62
     0
100
AcDbPoint
 10
720.9120771315524
 20
593.1777945507185
 30
0.0
  0
POINT
  5
4B4
330
4A9
100
AcDbEntity
  8
Defpoints
 62
     0
100
AcDbPoint
 10
720.9120771315524
 20
593.1777945507185
 30
0.0
  0
ENDBLK
  5
4B5
330
4A9
100
AcDbEntity
  8
0
100
AcDbBlockEnd
  0
BLOCK
  5
4B7
330
4B6
100
AcDbEntity
  8
0
100
AcDbBlockBegin
  2
*D28
 70
     1
 10
0.0
 20
0.0
 30
0.0
  3
*D28
  1

  0
LINE
  5
4B8
330
4B6
100
AcDbEntity
  8
0
 62
     0
370
    -2
100
AcDbLine
 10
433.9120771315513
 20
593.2402945507185
 30
0.0
 11
433.9120771315513
 21
593.3577945507185
 31
0.0
  0
LINE
  5
4B9
330
4B6
100
AcDbEntity
  8
0
 62
     0
370
    -2
100
AcDbLine
 10
356.9120771315513
 20
593.2402945507185
 30
0.0
 11
356.9120771315513
 21
593.3577945507185
 31
0.0
  0
LINE
  5
4BA
330
4B6
100
AcDbEntity
  8
0
 62
     0
370
    -2
100
AcDbLine
 10
433.7320771315511
 20
593.1777945507185
 30
0.0
 11
416.7520771315513
 21
593.1777945507185
 31
0.0
  0
LINE
  5
4BB
330
4B6
100
AcDbEntity
  8
0
 62
     0
370
    -2
100
AcDbLine
 10
357.0920771315513
 20
593.1777945507185
 30
0.0
 11
374.0720771315513
 21
593.1777945507185
 31
0.0
  0
SOLID
  5
4BC
330
4B6
100
AcDbEntity
  8
0
 62
     0
100
AcDbTrace
 10
433.7320771315511
 20
593.2077945507185
 30
0.0
 11
433.7320771315511
 21
593.1477945507185
 31
0.0
 12
433.9120771315513
 22
593.1777945507185
 32
0.0
 13
433.9120771315513
 23
593.1777945507185
 33
0.0
  0
SOLID
  5
4BD
330
4B6
100
AcDbEntity
  8
0
 62
     0
100
AcDbTrace
 10
357.0920771315513
 20
593.2077945507185
 30
0.0
 11
357.0920771315513
 21
593.1477945507185
 31
0.0
 12
356.9120771315513
 22
593.1777945507185
 32
0.0
 13
356.9120771315513
 23
593.1777945507185
 33
0.0
  0
MTEXT
  5
4BE
330
4B6
100
AcDbEntity
  8
0
 62
     0
100
AcDbMText
 10
395.4120771315513
 20
593.1777945507185
 30
0.0
 40
15.0
 41
0.0
 46
0.0
 71
     5
 72
     1
  1
\A1;77.0
 73
     1
 44
1.0
  0
POINT
  5
4BF
330
4B6
100
AcDbEntity
  8
Defpoints
 62
     0
100
AcDbPoint
 10
433.9120771315513
 20
593.1777945507185
 30
0.0
  0
POINT
  5
4C0
330
4B6
100
AcDbEntity
  8
Defpoints
 62
     0
100
AcDbPoint
 10
356.9120771315513
 20
593.1777945507185
 30
0.0
  0
POINT
  5
4C1
330
4B6
100
AcDbEntity
  8
Defpoints
 62
     0
100
AcDbPoint
 10
356.9120771315513
 20
593.1777945507185
 30
0.0
  0
ENDBLK
  5
4C2
330
4B6
100
AcDbEntity
  8
0
100
AcDbBlockEnd
  0
BLOCK
  5
5C0
330
5B5
100
AcDbEntity
  8
0
100
AcDbBlockBegin
  2
*D29
 70
     1
 10
0.0
 20
0.0
 30
0.0
  3
*D29
  1

  0
LINE
  5
5B6
330
5B5
100
AcDbEntity
  8
0
 62
     0
370
    -2
100
AcDbLine
 10
2425.936693462797
 20
1134.349393138812
 30
0.0
 11
2425.936693462797
 21
1134.466893138812
 31
0.0
  0
LINE
  5
5B7
330
5B5
100
AcDbEntity
  8
0
 62
     0
370
    -2
100
AcDbLine
 10
2502.936693462797
 20
1134.349393138812
 30
0.0
 11
2502.936693462797
 21
1134.466893138812
 31
0.0
  0
LINE
  5
5B8
330
5B5
100
AcDbEntity
  8
0
 62
     0
370
    -2
100
AcDbLine
 10
2426.116693462796
 20
1134.286893138812
 30
0.0
 11
2443.096693462796
 21
1134.286893138812
 31
0.0
  0
LINE
  5
5B9
330
5B5
100
AcDbEntity
  8
0
 62
     0
370
    -2
100
AcDbLine
 10
2502.756693462796
 20
1134.286893138812
 30
0.0
 11
2485.776693462796
 21
1134.286893138812
 31
0.0
  0
SOLID
  5
5BA
330
5B5
100
AcDbEntity
  8
0
 62
     0
100
AcDbTrace
 10
2426.116693462796
 20
1134.316893138812
 30
0.0
 11
2426.116693462796
 21
1134.256893138812
 31
0.0
 12
2425.936693462797
 22
1134.286893138812
 32
0.0
 13
2425.936693462797
 23
1134.286893138812
 33
0.0
  0
SOLID
  5
5BB
330
5B5
100
AcDbEntity
  8
0
 62
     0
100
AcDbTrace
 10
2502.756693462796
 20
1134.316893138812
 30
0.0
 11
2502.756693462796
 21
1134.256893138812
 31
0.0
 12
2502.936693462797
 22
1134.286893138812
 32
0.0
 13
2502.936693462797
 23
1134.286893138812
 33
0.0
  0
MTEXT
  5
5BC
330
5B5
100
AcDbEntity
  8
0
 62
     0
100
AcDbMText
 10
2464.436693462796
 20
1134.286893138812
 30
0.0
 40
15.0
 41
0.0
 46
0.0
 71
     5
 72
     1
  1
\A1;77.0
 73
     1
 44
1.0
  0
POINT
  5
5BD
330
5B5
100
AcDbEntity
  8
Defpoints
 62
     0
100
AcDbPoint
 10
2425.936693462797
 20
1134.286893138812
 30
0.0
  0
POINT
  5
5BE
330
5B5
100
AcDbEntity
  8
Defpoints
 62
     0
100
AcDbPoint
 10
2502.936693462797
 20
1134.286893138812
 30
0.0
  0
POINT
  5
5BF
330
5B5
100
AcDbEntity
  8
Defpoints
 62
     0
100
AcDbPoint
 10
2502.936693462797
 20
1134.286893138812
 30
0.0
  0
ENDBLK
  5
5C1
330
5B5
100
AcDbEntity
  8
0
100
AcDbBlockEnd
  0
BLOCK
  5
5CD
330
5C2
100
AcDbEntity
  8
0
100
AcDbBlockBegin
  2
*D30
 70
     1
 10
0.0
 20
0.0
 30
0.0
  3
*D30
  1

  0
LINE
  5
5C3
330
5C2
100
AcDbEntity
  8
0
 62
     0
370
    -2
100
AcDbLine
 10
2215.936693462795
 20
1134.349393138812
 30
0.0
 11
2215.936693462795
 21
1134.466893138812
 31
0.0
  0
LINE
  5
5C4
330
5C2
100
AcDbEntity
  8
0
 62
     0
370
    -2
100
AcDbLine
 10
2138.936693462795
 20
1134.349393138812
 30
0.0
 11
2138.936693462795
 21
1134.466893138812
 31
0.0
  0
LINE
  5
5C5
330
5C2
100
AcDbEntity
  8
0
 62
     0
370
    -2
100
AcDbLine
 10
2215.756693462795
 20
1134.286893138812
 30
0.0
 11
2198.776693462795
 21
1134.286893138812
 31
0.0
  0
LINE
  5
5C6
330
5C2
100
AcDbEntity
  8
0
 62
     0
370
    -2
100
AcDbLine
 10
2139.116693462795
 20
1134.286893138812
 30
0.0
 11
2156.096693462794
 21
1134.286893138812
 31
0.0
  0
SOLID
  5
5C7
330
5C2
100
AcDbEntity
  8
0
 62
     0
100
AcDbTrace
 10
2215.756693462795
 20
1134.316893138812
 30
0.0
 11
2215.756693462795
 21
1134.256893138812
 31
0.0
 12
2215.936693462795
 22
1134.286893138812
 32
0.0
 13
2215.936693462795
 23
1134.286893138812
 33
0.0
  0
SOLID
  5
5C8
330
5C2
100
AcDbEntity
  8
0
 62
     0
100
AcDbTrace
 10
2139.116693462795
 20
1134.316893138812
 30
0.0
 11
2139.116693462795
 21
1134.256893138812
 31
0.0
 12
2138.936693462795
 22
1134.286893138812
 32
0.0
 13
2138.936693462795
 23
1134.286893138812
 33
0.0
  0
MTEXT
  5
5C9
330
5C2
100
AcDbEntity
  8
0
 62
     0
100
AcDbMText
 10
2177.436693462794
 20
1134.286893138812
 30
0.0
 40
15.0
 41
0.0
 46
0.0
 71
     5
 72
     1
  1
\A1;77.0
 73
     1
 44
1.0
  0
POINT
  5
5CA
330
5C2
100
AcDbEntity
  8
Defpoints
 62
     0
100
AcDbPoint
 10
2215.936693462795
 20
1134.286893138812
 30
0.0
  0
POINT
  5
5CB
330
5C2
100
AcDbEntity
  8
Defpoints
 62
     0
100
AcDbPoint
 10
2138.936693462795
 20
1134.286893138812
 30
0.0
  0
POINT
  5
5CC
330
5C2
100
AcDbEntity
  8
Defpoints
 62
     0
100
AcDbPoint
 10
2138.936693462795
 20
1134.286893138812
 30
0.0
  0
ENDBLK
  5
5CE
330
5C2
100
AcDbEntity
  8
0
100
AcDbBlockEnd
  0
BLOCK
  5
6A6
330
69B
100
AcDbEntity
  8
0
100
AcDbBlockBegin
  2
*D31
 70
     1
 10
0.0
 20
0.0
 30
0.0
  3
*D31
  1

  0
LINE
  5
6A8
330
69B
100
AcDbEntity
  8
0
 62
     0
370
    -2
100
AcDbLine
 10
1355.69614663105
 20
951.9069541427194
 30
0.0
 11
1355.69614663105
 21
973.8919030919245
 31
0.0
  0
LINE
  5
6A9
330
69B
100
AcDbEntity
  8
0
 62
     0
370
    -2
100
AcDbLine
 10
1273.69614663105
 20
951.9069541427192
 30
0.0
 11
1273.69614663105
 21
973.8919030919245
 31
0.0
  0
LINE
  5
6AA
330
69B
100
AcDbEntity
  8
0
 62
     0
370
    -2
100
AcDbLine
 10
1355.51614663105
 20
973.7119030919243
 30
0.0
 11
1336.03614663105
 21
973.7119030919243
 31
0.0
  0
LINE
  5
6AB
330
69B
100
AcDbEntity
  8
0
 62
     0
370
    -2
100
AcDbLine
 10
1273.87614663105
 20
973.7119030919243
 30
0.0
 11
1293.35614663105
 21
973.7119030919243
 31
0.0
  0
SOLID
  5
6AC
330
69B
100
AcDbEntity
  8
0
 62
     0
100
AcDbTrace
 10
1355.51614663105
 20
973.7419030919244
 30
0.0
 11
1355.51614663105
 21
973.6819030919244
 31
0.0
 12
1355.69614663105
 22
973.7119030919243
 32
0.0
 13
1355.69614663105
 23
973.7119030919243
 33
0.0
  0
SOLID
  5
6AD
330
69B
100
AcDbEntity
  8
0
 62
     0
100
AcDbTrace
 10
1273.87614663105
 20
973.7419030919244
 30
0.0
 11
1273.87614663105
 21
973.6819030919244
 31
0.0
 12
1273.69614663105
 22
973.7119030919243
 32
0.0
 13
1273.69614663105
 23
973.7119030919243
 33
0.0
  0
MTEXT
  5
6AE
330
69B
100
AcDbEntity
  8
0
 62
     0
100
AcDbMText
 10
1314.69614663105
 20
973.7119030919243
 30
0.0
 40
15.0
 41
0.0
 46
0.0
 71
     5
 72
     1
  1
\A1;82.0
 73
     1
 44
1.0
  0
POINT
  5
6AF
330
69B
100
AcDbEntity
  8
Defpoints
 62
     0
100
AcDbPoint
 10
1355.69614663105
 20
951.8444541427195
 30
0.0
  0
POINT
  5
6B0
330
69B
100
AcDbEntity
  8
Defpoints
 62
     0
100
AcDbPoint
 10
1273.69614663105
 20
951.8444541427193
 30
0.0
  0
POINT
  5
6B1
330
69B
100
AcDbEntity
  8
Defpoints
 62
     0
100
AcDbPoint
 10
1273.69614663105
 20
973.7119030919243
 30
0.0
  0
ENDBLK
  5
6A7
330
69B
100
AcDbEntity
  8
0
100
AcDbBlockEnd
  0
BLOCK
  5
6BD
330
6B3
100
AcDbEntity
  8
0
100
AcDbBlockBegin
  2
*D32
 70
     1
 10
0.0
 20
0.0
 30
0.0
  3
*D32
  1

  0
LINE
  5
6CA
330
6B3
100
AcDbEntity
  8
0
 62
     0
370
    -2
100
AcDbLine
 10
1614.731422811459
 20
1182.747674377092
 30
0.0
 11
1614.731422811459
 21
1183.372674377092
 31
0.0
  0
LINE
  5
6CB
330
6B3
100
AcDbEntity
  8
0
 62
     0
370
    -2
100
AcDbLine
 10
1691.731422811459
 20
1182.747674377092
 30
0.0
 11
1691.731422811459
 21
1183.372674377092
 31
0.0
  0
LINE
  5
6CC
330
6B3
100
AcDbEntity
  8
0
 62
     0
370
    -2
100
AcDbLine
 10
1617.231422811459
 20
1182.122674377092
 30
0.0
 11
1689.231422811459
 21
1182.122674377092
 31
0.0
  0
SOLID
  5
6CD
330
6B3
100
AcDbEntity
  8
0
 62
     0
100
AcDbTrace
 10
1617.231422811459
 20
1182.539341043758
 30
0.0
 11
1617.231422811459
 21
1181.706007710425
 31
0.0
 12
1614.731422811459
 22
1182.122674377092
 32
0.0
 13
1614.731422811459
 23
1182.122674377092
 33
0.0
  0
SOLID
  5
6CE
330
6B3
100
AcDbEntity
  8
0
 62
     0
100
AcDbTrace
 10
1689.231422811459
 20
1182.539341043758
 30
0.0
 11
1689.231422811459
 21
1181.706007710425
 31
0.0
 12
1691.731422811459
 22
1182.122674377092
 32
0.0
 13
1691.731422811459
 23
1182.122674377092
 33
0.0
  0
MTEXT
  5
6CF
330
6B3
100
AcDbEntity
  8
0
 62
     0
100
AcDbMText
 10
1653.231422811459
 20
1183.997674377092
 30
0.0
 40
2.5
 41
0.0
 46
0.0
 71
     5
 72
     1
  1
77
 73
     1
 44
1.0
  0
POINT
  5
6D0
330
6B3
100
AcDbEntity
  8
Defpoints
 62
     0
100
AcDbPoint
 10
1614.731422811459
 20
1182.122674377092
 30
0.0
  0
POINT
  5
6D1
330
6B3
100
AcDbEntity
  8
Defpoints
 62
     0
100
AcDbPoint
 10
1691.731422811459
 20
1182.122674377092
 30
0.0
  0
POINT
  5
6D2
330
6B3
100
AcDbEntity
  8
Defpoints
 62
     0
100
AcDbPoint
 10
1691.731422811459
 20
1182.122674377092
 30
0.0
  0
ENDBLK
  5
6BE
330
6B3
100
AcDbEntity
  8
0
100
AcDbBlockEnd
  0
BLOCK
  5
6E8
330
6DE
100
AcDbEntity
  8
0
100
AcDbBlockBegin
  2
*D33
 70
     1
 10
0.0
 20
0.0
 30
0.0
  3
*D33
  1

  0
LINE
  5
6EB
330
6DE
100
AcDbEntity
  8
0
 62
     0
370
    -2
100
AcDbLine
 10
1614.731422811459
 20
766.4976743770917
 30
0.0
 11
1614.731422811459
 21
765.8726743770917
 31
0.0
  0
LINE
  5
6EC
330
6DE
100
AcDbEntity
  8
0
 62
     0
370
    -2
100
AcDbLine
 10
1691.731422811459
 20
766.4976743770917
 30
0.0
 11
1691.731422811459
 21
765.8726743770917
 31
0.0
  0
LINE
  5
6ED
330
6DE
100
AcDbEntity
  8
0
 62
     0
370
    -2
100
AcDbLine
 10
1617.231422811459
 20
767.1226743770916
 30
0.0
 11
1689.231422811459
 21
767.1226743770916
 31
0.0
  0
SOLID
  5
6EE
330
6DE
100
AcDbEntity
  8
0
 62
     0
100
AcDbTrace
 10
1617.231422811459
 20
767.5393410437584
 30
0.0
 11
1617.231422811459
 21
766.7060077104252
 31
0.0
 12
1614.731422811459
 22
767.1226743770916
 32
0.0
 13
1614.731422811459
 23
767.1226743770916
 33
0.0
  0
SOLID
  5
6EF
330
6DE
100
AcDbEntity
  8
0
 62
     0
100
AcDbTrace
 10
1689.231422811459
 20
767.5393410437584
 30
0.0
 11
1689.231422811459
 21
766.7060077104252
 31
0.0
 12
1691.731422811459
 22
767.1226743770916
 32
0.0
 13
1691.731422811459
 23
767.1226743770916
 33
0.0
  0
MTEXT
  5
6F0
330
6DE
100
AcDbEntity
  8
0
 62
     0
100
AcDbMText
 10
1653.231422811459
 20
768.9976743770917
 30
0.0
 40
2.5
 41
0.0
 46
0.0
 71
     5
 72
     1
  1
77
 73
     1
 44
1.0
  0
POINT
  5
6F1
330
6DE
100
AcDbEntity
  8
Defpoints
 62
     0
100
AcDbPoint
 10
1614.731422811459
 20
767.1226743770916
 30
0.0
  0
POINT
  5
6F2
330
6DE
100
AcDbEntity
  8
Defpoints
 62
     0
100
AcDbPoint
 10
1691.731422811459
 20
767.1226743770916
 30
0.0
  0
POINT
  5
6F3
330
6DE
100
AcDbEntity
  8
Defpoints
 62
     0
100
AcDbPoint
 10
1691.731422811459
 20
767.1226743770916
 30
0.0
  0
ENDBLK
  5
6E9
330
6DE
100
AcDbEntity
  8
0
100
AcDbBlockEnd
  0
BLOCK
  5
73D
330
732
100
AcDbEntity
  8
0
100
AcDbBlockBegin
  2
*D34
 70
     1
 10
0.0
 20
0.0
 30
0.0
  3
*D34
  1

  0
LINE
  5
757
330
732
100
AcDbEntity
  8
0
 62
     0
370
    -2
100
AcDbLine
 10
1355.69614663105
 20
951.9069541427194
 30
0.0
 11
1355.69614663105
 21
973.8919030919245
 31
0.0
  0
LINE
  5
758
330
732
100
AcDbEntity
  8
0
 62
     0
370
    -2
100
AcDbLine
 10
1273.69614663105
 20
951.9069541427192
 30
0.0
 11
1273.69614663105
 21
973.8919030919245
 31
0.0
  0
LINE
  5
759
330
732
100
AcDbEntity
  8
0
 62
     0
370
    -2
100
AcDbLine
 10
1355.51614663105
 20
973.7119030919243
 30
0.0
 11
1336.03614663105
 21
973.7119030919243
 31
0.0
  0
LINE
  5
75A
330
732
100
AcDbEntity
  8
0
 62
     0
370
    -2
100
AcDbLine
 10
1273.87614663105
 20
973.7119030919243
 30
0.0
 11
1293.35614663105
 21
973.7119030919243
 31
0.0
  0
SOLID
  5
75B
330
732
100
AcDbEntity
  8
0
 62
     0
100
AcDbTrace
 10
1355.51614663105
 20
973.7419030919244
 30
0.0
 11
1355.51614663105
 21
973.6819030919244
 31
0.0
 12
1355.69614663105
 22
973.7119030919243
 32
0.0
 13
1355.69614663105
 23
973.7119030919243
 33
0.0
  0
SOLID
  5
75C
330
732
100
AcDbEntity
  8
0
 62
     0
100
AcDbTrace
 10
1273.87614663105
 20
973.7419030919244
 30
0.0
 11
1273.87614663105
 21
973.6819030919244
 31
0.0
 12
1273.69614663105
 22
973.7119030919243
 32
0.0
 13
1273.69614663105
 23
973.7119030919243
 33
0.0
  0
MTEXT
  5
75D
330
732
100
AcDbEntity
  8
0
 62
     0
100
AcDbMText
 10
1314.69614663105
 20
973.7119030919243
 30
0.0
 40
15.0
 41
0.0
 46
0.0
 71
     5
 72
     1
  1
\A1;82.0
 73
     1
 44
1.0
  0
POINT
  5
75E
330
732
100
AcDbEntity
  8
Defpoints
 62
     0
100
AcDbPoint
 10
1355.69614663105
 20
951.8444541427195
 30
0.0
  0
POINT
  5
75F
330
732
100
AcDbEntity
  8
Defpoints
 62
     0
100
AcDbPoint
 10
1273.69614663105
 20
951.8444541427193
 30
0.0
  0
POINT
  5
760
330
732
100
AcDbEntity
  8
Defpoints
 62
     0
100
AcDbPoint
 10
1273.69614663105
 20
973.7119030919243
 30
0.0
  0
ENDBLK
  5
73E
330
732
100
AcDbEntity
  8
0
100
AcDbBlockEnd
  0
BLOCK
  5
749
330
73F
100
AcDbEntity
  8
0
100
AcDbBlockBegin
  2
*D35
 70
     1
 10
0.0
 20
0.0
 30
0.0
  3
*D35
  1

  0
LINE
  5
740
330
73F
100
AcDbEntity
  8
0
 62
     0
370
    -2
100
AcDbLine
 10
1354.696146631051
 20
1182.747674377092
 30
0.0
 11
1354.696146631051
 21
1183.372674377092
 31
0.0
  0
LINE
  5
741
330
73F
100
AcDbEntity
  8
0
 62
     0
370
    -2
100
AcDbLine
 10
1277.696146631051
 20
1182.747674377092
 30
0.0
 11
1277.696146631051
 21
1183.372674377092
 31
0.0
  0
LINE
  5
742
330
73F
100
AcDbEntity
  8
0
 62
     0
370
    -2
100
AcDbLine
 10
1352.196146631051
 20
1182.122674377092
 30
0.0
 11
1280.19614663105
 21
1182.122674377092
 31
0.0
  0
SOLID
  5
743
330
73F
100
AcDbEntity
  8
0
 62
     0
100
AcDbTrace
 10
1352.196146631051
 20
1182.539341043758
 30
0.0
 11
1352.196146631051
 21
1181.706007710425
 31
0.0
 12
1354.696146631051
 22
1182.122674377092
 32
0.0
 13
1354.696146631051
 23
1182.122674377092
 33
0.0
  0
SOLID
  5
744
330
73F
100
AcDbEntity
  8
0
 62
     0
100
AcDbTrace
 10
1280.19614663105
 20
1182.539341043758
 30
0.0
 11
1280.19614663105
 21
1181.706007710425
 31
0.0
 12
1277.696146631051
 22
1182.122674377092
 32
0.0
 13
1277.696146631051
 23
1182.122674377092
 33
0.0
  0
MTEXT
  5
745
330
73F
100
AcDbEntity
  8
0
 62
     0
100
AcDbMText
 10
1316.196146631051
 20
1183.997674377092
 30
0.0
 40
2.5
 41
0.0
 46
0.0
 71
     5
 72
     1
  1
77
 73
     1
 44
1.0
  0
POINT
  5
746
330
73F
100
AcDbEntity
  8
Defpoints
 62
     0
100
AcDbPoint
 10
1354.696146631051
 20
1182.122674377092
 30
0.0
  0
POINT
  5
747
330
73F
100
AcDbEntity
  8
Defpoints
 62
     0
100
AcDbPoint
 10
1277.696146631051
 20
1182.122674377092
 30
0.0
  0
POINT
  5
748
330
73F
100
AcDbEntity
  8
Defpoints
 62
     0
100
AcDbPoint
 10
1277.696146631051
 20
1182.122674377092
 30
0.0
  0
ENDBLK
  5
74A
330
73F
100
AcDbEntity
  8
0
100
AcDbBlockEnd
  0
BLOCK
  5
755
330
74B
100
AcDbEntity
  8
0
100
AcDbBlockBegin
  2
*D36
 70
     1
 10
0.0
 20
0.0
 30
0.0
  3
*D36
  1

  0
LINE
  5
74C
330
74B
100
AcDbEntity
  8
0
 62
     0
370
    -2
100
AcDbLine
 10
1354.696146631051
 20
766.4976743770917
 30
0.0
 11
1354.696146631051
 21
765.8726743770917
 31
0.0
  0
LINE
  5
74D
330
74B
100
AcDbEntity
  8
0
 62
     0
370
    -2
100
AcDbLine
 10
1277.696146631051
 20
766.4976743770917
 30
0.0
 11
1277.696146631051
 21
765.8726743770917
 31
0.0
  0
LINE
  5
74E
330
74B
100
AcDbEntity
  8
0
 62
     0
370
    -2
100
AcDbLine
 10
1352.196146631051
 20
767.1226743770916
 30
0.0
 11
1280.196146631051
 21
767.1226743770916
 31
0.0
  0
SOLID
  5
74F
330
74B
100
AcDbEntity
  8
0
 62
     0
100
AcDbTrace
 10
1352.196146631051
 20
767.5393410437584
 30
0.0
 11
1352.196146631051
 21
766.7060077104252
 31
0.0
 12
1354.696146631051
 22
767.1226743770916
 32
0.0
 13
1354.696146631051
 23
767.1226743770916
 33
0.0
  0
SOLID
  5
750
330
74B
100
AcDbEntity
  8
0
 62
     0
100
AcDbTrace
 10
1280.196146631051
 20
767.5393410437584
 30
0.0
 11
1280.196146631051
 21
766.7060077104252
 31
0.0
 12
1277.696146631051
 22
767.1226743770916
 32
0.0
 13
1277.696146631051
 23
767.1226743770916
 33
0.0
  0
MTEXT
  5
751
330
74B
100
AcDbEntity
  8
0
 62
     0
100
AcDbMText
 10
1316.196146631051
 20
768.9976743770917
 30
0.0
 40
2.5
 41
0.0
 46
0.0
 71
     5
 72
     1
  1
77
 73
     1
 44
1.0
  0
POINT
  5
752
330
74B
100
AcDbEntity
  8
Defpoints
 62
     0
100
AcDbPoint
 10
1354.696146631051
 20
767.1226743770916
 30
0.0
  0
POINT
  5
753
330
74B
100
AcDbEntity
  8
Defpoints
 62
     0
100
AcDbPoint
 10
1277.696146631051
 20
767.1226743770916
 30
0.0
  0
POINT
  5
754
330
74B
100
AcDbEntity
  8
Defpoints
 62
     0
100
AcDbPoint
 10
1277.696146631051
 20
767.1226743770916
 30
0.0
  0
ENDBLK
  5
756
330
74B
100
AcDbEntity
  8
0
100
AcDbBlockEnd
  0
BLOCK
  5
839
330
82E
100
AcDbEntity
  8
0
100
AcDbBlockBegin
  2
*D37
 70
     1
 10
0.0
 20
0.0
 30
0.0
  3
*D37
  1

  0
LINE
  5
8D5
330
82E
100
AcDbEntity
  8
0
 62
     0
370
    -2
100
AcDbLine
 10
1385.537658575944
 20
710.7605555436991
 30
0.0
 11
1385.537658575944
 21
714.2442178631869
 31
0.0
  0
LINE
  5
8D6
330
82E
100
AcDbEntity
  8
0
 62
     0
370
    -2
100
AcDbLine
 10
1645.537658575943
 20
710.7605555436991
 30
0.0
 11
1645.537658575943
 21
714.2442178631869
 31
0.0
  0
LINE
  5
8D7
330
82E
100
AcDbEntity
  8
0
 62
     0
370
    -2
100
AcDbLine
 10
1385.717658575944
 20
714.0642178631869
 30
0.0
 11
1487.947658575944
 21
714.0642178631869
 31
0.0
  0
LINE
  5
8D8
330
82E
100
AcDbEntity
  8
0
 62
     0
370
    -2
100
AcDbLine
 10
1645.357658575943
 20
714.0642178631869
 30
0.0
 11
1543.127658575943
 21
714.0642178631869
 31
0.0
  0
SOLID
  5
8D9
330
82E
100
AcDbEntity
  8
0
 62
     0
100
AcDbTrace
 10
1385.717658575944
 20
714.0942178631869
 30
0.0
 11
1385.717658575944
 21
714.0342178631869
 31
0.0
 12
1385.537658575944
 22
714.0642178631869
 32
0.0
 13
1385.537658575944
 23
714.0642178631869
 33
0.0
  0
SOLID
  5
8DA
330
82E
100
AcDbEntity
  8
0
 62
     0
100
AcDbTrace
 10
1645.357658575943
 20
714.0942178631869
 30
0.0
 11
1645.357658575943
 21
714.0342178631869
 31
0.0
 12
1645.537658575943
 22
714.0642178631869
 32
0.0
 13
1645.537658575943
 23
714.0642178631869
 33
0.0
  0
MTEXT
  5
8DB
330
82E
100
AcDbEntity
  8
0
 62
     0
100
AcDbMText
 10
1515.537658575943
 20
714.0642178631869
 30
0.0
 40
15.0
 41
0.0
 46
0.0
 71
     5
 72
     1
  1
\A1;260.0
 73
     1
 44
1.0
  0
POINT
  5
8DC
330
82E
100
AcDbEntity
  8
Defpoints
 62
     0
100
AcDbPoint
 10
1385.537658575944
 20
710.6980555436991
 30
0.0
  0
POINT
  5
8DD
330
82E
100
AcDbEntity
  8
Defpoints
 62
     0
100
AcDbPoint
 10
1645.537658575943
 20
710.6980555436991
 30
0.0
  0
POINT
  5
8DE
330
82E
100
AcDbEntity
  8
Defpoints
 62
     0
100
AcDbPoint
 10
1645.537658575943
 20
714.0642178631869
 30
0.0
  0
ENDBLK
  5
83A
330
82E
100
AcDbEntity
  8
0
100
AcDbBlockEnd
  0
BLOCK
  5
850
330
845
100
AcDbEntity
  8
0
100
AcDbBlockBegin
  2
*D38
 70
     1
 10
0.0
 20
0.0
 30
0.0
  3
*D38
  1

  0
LINE
  5
8F3
330
845
100
AcDbEntity
  8
0
 62
     0
370
    -2
100
AcDbLine
 10
1608.607039778077
 20
897.122674377092
 30
0.0
 11
1608.489539778077
 21
897.122674377092
 31
0.0
  0
LINE
  5
8F4
330
845
100
AcDbEntity
  8
0
 62
     0
370
    -2
100
AcDbLine
 10
1608.607039778077
 20
637.1226743770919
 30
0.0
 11
1608.489539778077
 21
637.1226743770919
 31
0.0
  0
LINE
  5
8F5
330
845
100
AcDbEntity
  8
0
 62
     0
370
    -2
100
AcDbLine
 10
1608.669539778077
 20
896.942674377092
 30
0.0
 11
1608.669539778077
 21
774.712674377092
 31
0.0
  0
LINE
  5
8F6
330
845
100
AcDbEntity
  8
0
 62
     0
370
    -2
100
AcDbLine
 10
1608.669539778077
 20
637.3026743770918
 30
0.0
 11
1608.669539778077
 21
759.5326743770916
 31
0.0
  0
SOLID
  5
8F7
330
845
100
AcDbEntity
  8
0
 62
     0
100
AcDbTrace
 10
1608.639539778077
 20
896.942674377092
 30
0.0
 11
1608.699539778077
 21
896.942674377092
 31
0.0
 12
1608.669539778077
 22
897.122674377092
 32
0.0
 13
1608.669539778077
 23
897.122674377092
 33
0.0
  0
SOLID
  5
8F8
330
845
100
AcDbEntity
  8
0
 62
     0
100
AcDbTrace
 10
1608.639539778077
 20
637.3026743770918
 30
0.0
 11
1608.699539778077
 21
637.3026743770918
 31
0.0
 12
1608.669539778077
 22
637.1226743770919
 32
0.0
 13
1608.669539778077
 23
637.1226743770919
 33
0.0
  0
MTEXT
  5
8F9
330
845
100
AcDbEntity
  8
0
 62
     0
100
AcDbMText
 10
1608.669539778077
 20
767.1226743770922
 30
0.0
 40
15.0
 41
0.0
 46
0.0
 71
     5
 72
     1
  1
\A1;260.0
 73
     1
 44
1.0
  0
POINT
  5
8FA
330
845
100
AcDbEntity
  8
Defpoints
 62
     0
100
AcDbPoint
 10
1608.669539778077
 20
897.122674377092
 30
0.0
  0
POINT
  5
8FB
330
845
100
AcDbEntity
  8
Defpoints
 62
     0
100
AcDbPoint
 10
1608.669539778077
 20
637.1226743770919
 30
0.0
  0
POINT
  5
8FC
330
845
100
AcDbEntity
  8
Defpoints
 62
     0
100
AcDbPoint
 10
1608.669539778077
 20
637.1226743770919
 30
0.0
  0
ENDBLK
  5
851
330
845
100
AcDbEntity
  8
0
100
AcDbBlockEnd
  0
BLOCK
  5
85D
330
852
100
AcDbEntity
  8
0
100
AcDbBlockBegin
  2
*D39
 70
     1
 10
0.0
 20
0.0
 30
0.0
  3
*D39
  1

  0
LINE
  5
8E9
330
852
100
AcDbEntity
  8
0
 62
     0
370
    -2
100
AcDbLine
 10
1515.475158575944
 20
1052.122674377092
 30
0.0
 11
1501.495200434912
 21
1052.122674377092
 31
0.0
  0
LINE
  5
8EA
330
852
100
AcDbEntity
  8
0
 62
     0
370
    -2
100
AcDbLine
 10
1515.475158575944
 20
897.122674377092
 30
0.0
 11
1501.495200434912
 21
897.122674377092
 31
0.0
  0
LINE
  5
8EB
330
852
100
AcDbEntity
  8
0
 62
     0
370
    -2
100
AcDbLine
 10
1501.675200434912
 20
1051.942674377092
 30
0.0
 11
1501.675200434912
 21
982.2126743770919
 31
0.0
  0
LINE
  5
8EC
330
852
100
AcDbEntity
  8
0
 62
     0
370
    -2
100
AcDbLine
 10
1501.675200434912
 20
897.3026743770919
 30
0.0
 11
1501.675200434912
 21
967.0326743770916
 31
0.0
  0
SOLID
  5
8ED
330
852
100
AcDbEntity
  8
0
 62
     0
100
AcDbTrace
 10
1501.645200434912
 20
1051.942674377092
 30
0.0
 11
1501.705200434912
 21
1051.942674377092
 31
0.0
 12
1501.675200434912
 22
1052.122674377092
 32
0.0
 13
1501.675200434912
 23
1052.122674377092
 33
0.0
  0
SOLID
  5
8EE
330
852
100
AcDbEntity
  8
0
 62
     0
100
AcDbTrace
 10
1501.645200434912
 20
897.3026743770919
 30
0.0
 11
1501.705200434912
 21
897.3026743770919
 31
0.0
 12
1501.675200434912
 22
897.122674377092
 32
0.0
 13
1501.675200434912
 23
897.122674377092
 33
0.0
  0
MTEXT
  5
8EF
330
852
100
AcDbEntity
  8
0
 62
     0
100
AcDbMText
 10
1501.675200434912
 20
974.6226743770918
 30
0.0
 40
15.0
 41
0.0
 46
0.0
 71
     5
 72
     1
  1
\A1;155.0
 73
     1
 44
1.0
  0
POINT
  5
8F0
330
852
100
AcDbEntity
  8
Defpoints
 62
     0
100
AcDbPoint
 10
1515.537658575944
 20
1052.122674377092
 30
0.0
  0
POINT
  5
8F1
330
852
100
AcDbEntity
  8
Defpoints
 62
     0
100
AcDbPoint
 10
1515.537658575944
 20
897.122674377092
 30
0.0
  0
POINT
  5
8F2
330
852
100
AcDbEntity
  8
Defpoints
 62
     0
100
AcDbPoint
 10
1501.675200434912
 20
897.122674377092
 30
0.0
  0
ENDBLK
  5
85E
330
852
100
AcDbEntity
  8
0
100
AcDbBlockEnd
  0
ENDSEC
  0
SECTION
  2
ENTITIES
  0
MTEXT
  5
31B
330
1F
100
AcDbEntity
  8
0
100
AcDbMText
 10
1450.703075880859
 20
567.0094852067832
 30
0.0
 40
50.0
 41
113.9330467054915
 46
0.0
 71
     1
 72
     5
  1
{\fSimSun|b0|i0|c134|p2;8寸}
 73
     1
 44
1.0
  0
LINE
  5
79F
102
{ACAD_REACTORS
330
7D7
102
}
330
1F
100
AcDbEntity
  8
Defpoints
100
AcDbLine
 10
1386.537658575944
 20
637.1226743770919
 30
0.0
 11
1644.502382395534
 21
637.1226743770919
 31
0.0
  0
LINE
  5
7A1
330
1F
100
AcDbEntity
  8
Defpoints
100
AcDbLine
 10
1645.537658575943
 20
638.1226743770919
 30
0.0
 11
1645.537658575943
 21
896.122674377092
 31
0.0
  0
LINE
  5
7A4
102
{ACAD_REACTORS
330
7D7
330
7DA
102
}
330
1F
100
AcDbEntity
  8
Defpoints
100
AcDbLine
 10
1644.537658575944
 20
897.122674377092
 30
0.0
 11
1386.537658575944
 21
897.122674377092
 31
0.0
  0
LINE
  5
7A5
102
{ACAD_REACTORS
330
7DA
102
}
330
1F
100
AcDbEntity
  8
Defpoints
100
AcDbLine
 10
1644.537658575944
 20
1052.122674377092
 30
0.0
 11
1386.537658575944
 21
1052.122674377092
 31
0.0
  0
LINE
  5
7A6
330
1F
100
AcDbEntity
  8
Defpoints
100
AcDbLine
 10
1644.537658575944
 20
1312.122674377091
 30
0.0
 11
1386.537658575944
 21
1312.122674377092
 31
0.0
  0
LINE
  5
7A8
330
1F
100
AcDbEntity
  8
Defpoints
100
AcDbLine
 10
1644.537658575944
 20
897.122674377092
 30
0.0
 11
1644.537658575944
 21
1052.122674377092
 31
0.0
  0
LINE
  5
7AB
330
1F
100
AcDbEntity
  8
Defpoints
100
AcDbLine
 10
1645.537658575943
 20
1053.122674377091
 30
0.0
 11
1645.537658575943
 21
1311.122674377092
 31
0.0
  0
LINE
  5
7AC
330
1F
100
AcDbEntity
  8
Defpoints
100
AcDbLine
 10
1644.537658575944
 20
1312.122674377092
 30
0.0
 11
1644.537658575944
 21
1466.122674377092
 31
0.0
  0
LINE
  5
7B9
330
1F
100
AcDbEntity
  8
Defpoints
100
AcDbLine
 10
1645.537658575943
 20
1311.122674377092
 30
0.0
 11
1645.537658575943
 21
1053.122674377092
 31
0.0
  0
DIMENSION
  5
7D4
330
1F
100
AcDbEntity
  8
0
100
AcDbDimension
  2
*D37
 10
1645.537658575943
 20
714.0642178631869
 30
0.0
 11
1515.537658575943
 21
714.0642178631869
 31
0.0
 70
    32
 71
     5
 42
259.9999999999991
 73
     0
 74
     0
 75
     0
  3
Standard
100
AcDbAlignedDimension
 13
1385.537658575944
 23
710.6980555436991
 33
0.0
 14
1645.537658575943
 24
710.6980555436991
 34
0.0
100
AcDbRotatedDimension
  0
DIMENSION
  5
7D5
102
{ACAD_XDICTIONARY
360
7D6
102
}
102
{ACAD_REACTORS
330
7D7
102
}
330
1F
100
AcDbEntity
  8
0
100
AcDbDimension
  2
*D38
 10
1608.669539778077
 20
637.1226743770919
 30
0.0
 11
1608.669539778077
 21
767.1226743770922
 31
0.0
 70
    32
 71
     5
 42
260.0
 73
     0
 74
     0
 75
     0
  3
Standard
100
AcDbAlignedDimension
 13
1608.669539778077
 23
897.122674377092
 33
0.0
 14
1608.669539778077
 24
637.1226743770919
 34
0.0
 50
90.0
100
AcDbRotatedDimension
  0
DIMENSION
  5
7D8
102
{ACAD_XDICTIONARY
360
7D9
102
}
102
{ACAD_REACTORS
330
7DA
102
}
330
1F
100
AcDbEntity
  8
0
100
AcDbDimension
  2
*D39
 10
1501.675200434912
 20
897.122674377092
 30
0.0
 11
1501.675200434912
 21
974.6226743770918
 31
0.0
 70
    32
 71
     5
 42
154.9999999999999
 73
     0
 74
     0
 75
     0
  3
Standard
100
AcDbAlignedDimension
 13
1515.537658575944
 23
1052.122674377092
 33
0.0
 14
1515.537658575944
 24
897.122674377092
 34
0.0
 50
90.0
100
AcDbRotatedDimension
  0
LINE
  5
7DB
330
1F
100
AcDbEntity
  8
Defpoints
100
AcDbLine
 10
1722.537658575943
 20
1231.622674377092
 30
0.0
 11
1722.537658575943
 21
1132.622674377092
 31
0.0
  0
ARC
  5
7DD
330
1F
100
AcDbEntity
  8
_U+56FE_U+5C42 1
100
AcDbCircle
 10
1515.530870526242
 20
1185.369783683112
 30
0.0
 40
70.13945843144774
100
AcDbArc
 50
9.571684463157485
 51
170.4283155368425
  0
ARC
  5
7DE
330
1F
100
AcDbEntity
  8
_U+56FE_U+5C42 1
100
AcDbCircle
 10
1515.537658575943
 20
1187.27526696783
 30
0.0
 40
45.25740740926077
100
AcDbArc
 50
19.91376736419836
 51
160.0862326358116
  0
ARC
  5
7DF
330
1F
100
AcDbEntity
  8
_U+56FE_U+5C42 1
100
AcDbCircle
 10
1515.537658575944
 20
1234.472674377092
 30
0.0
 40
11.99999999999999
100
AcDbArc
 50
196.5869282834775
 51
343.4130717165215
  0
LINE
  5
7E0
330
1F
100
AcDbEntity
  8
Defpoints
100
AcDbLine
 10
1446.454045765523
 20
1197.532674377091
 30
0.0
 11
1475.909664623514
 21
1197.532674377091
 31
0.0
  0
LINE
  5
7E1
330
1F
100
AcDbEntity
  8
_U+56FE_U+5C42 1
100
AcDbLine
 10
1477.864129055193
 20
1197.662719294821
 30
0.0
 11
1477.864129055193
 21
1202.13485524982
 31
0.0
  0
ARC
  5
7E2
330
1F
100
AcDbEntity
  8
_U+56FE_U+5C42 1
100
AcDbCircle
 10
1477.864129055193
 20
1202.13485524982
 30
0.0
 40
5.0
100
AcDbArc
 50
182.4048052292482
 51
263.6206297915455
  0
ARC
  5
7E3
330
1F
100
AcDbEntity
  8
_U+56FE_U+5C42 1
100
AcDbCircle
 10
1474.866771111403
 20
1202.008976908556
 30
0.0
 40
2.0
100
AcDbArc
 50
160.0862326358122
 51
182.4048052292468
  0
ARC
  5
7E4
330
1F
100
AcDbEntity
  8
_U+56FE_U+5C42 1
100
AcDbCircle
 10
1477.364129055193
 20
1197.662719294821
 30
0.0
 40
0.5
100
AcDbArc
 50
263.6206297915455
 51
0.0
  0
LINE
  5
7E5
330
1F
100
AcDbEntity
  8
Defpoints
100
AcDbLine
 10
1584.607695286961
 20
1197.532674377092
 30
0.0
 11
1555.16565252837
 21
1197.532674377091
 31
0.0
  0
LINE
  5
7E6
330
1F
100
AcDbEntity
  8
_U+56FE_U+5C42 1
100
AcDbLine
 10
1553.211188096692
 20
1197.662719294821
 30
0.0
 11
1553.211188096692
 21
1202.13485524982
 31
0.0
  0
ARC
  5
7E7
330
1F
100
AcDbEntity
  8
_U+56FE_U+5C42 1
100
AcDbCircle
 10
1553.211188096692
 20
1202.13485524982
 30
0.0
 40
5.0
100
AcDbArc
 50
276.3793702084545
 51
357.5951947708563
  0
ARC
  5
7E8
330
1F
100
AcDbEntity
  8
_U+56FE_U+5C42 1
100
AcDbCircle
 10
1556.208546040482
 20
1202.008976908562
 30
0.0
 40
2.0
100
AcDbArc
 50
357.5951947708576
 51
19.9137673641925
  0
ARC
  5
7E9
330
1F
100
AcDbEntity
  8
_U+56FE_U+5C42 1
100
AcDbCircle
 10
1553.711188096692
 20
1197.662719294821
 30
0.0
 40
0.5
100
AcDbArc
 50
180.0
 51
276.3793702084545
  0
LINE
  5
7EA
330
1F
100
AcDbEntity
  8
_U+56FE_U+5C42 1
100
AcDbLine
 10
1722.537658575943
 20
817.1226743770917
 30
0.0
 11
1722.537658575943
 21
717.1226743770916
 31
0.0
  0
LINE
  5
7EB
330
1F
100
AcDbEntity
  8
_U+56FE_U+5C42 1
100
AcDbLine
 10
1722.537658575943
 20
817.1226743770917
 30
0.0
 11
1747.537658575943
 21
817.1226743770917
 31
0.0
  0
LINE
  5
7EC
330
1F
100
AcDbEntity
  8
_U+56FE_U+5C42 1
100
AcDbLine
 10
1722.537658575943
 20
717.1226743770916
 30
0.0
 11
1747.537658575943
 21
717.1226743770916
 31
0.0
  0
LINE
  5
7ED
330
1F
100
AcDbEntity
  8
Defpoints
100
AcDbLine
 10
1385.502382395535
 20
638.1226743770919
 30
0.0
 11
1385.502382395535
 21
896.122674377092
 31
0.0
  0
LINE
  5
7F0
330
1F
100
AcDbEntity
  8
Defpoints
100
AcDbLine
 10
1386.502382395534
 20
897.122674377092
 30
0.0
 11
1386.502382395534
 21
1052.122674377092
 31
0.0
  0
LINE
  5
7F3
330
1F
100
AcDbEntity
  8
Defpoints
100
AcDbLine
 10
1385.502382395535
 20
1053.122674377091
 30
0.0
 11
1385.502382395535
 21
1311.122674377092
 31
0.0
  0
LINE
  5
7F4
330
1F
100
AcDbEntity
  8
Defpoints
100
AcDbLine
 10
1386.502382395534
 20
1312.122674377092
 30
0.0
 11
1386.502382395534
 21
1466.122674377092
 31
0.0
  0
LINE
  5
801
330
1F
100
AcDbEntity
  8
Defpoints
100
AcDbLine
 10
1385.502382395535
 20
1311.122674377092
 30
0.0
 11
1385.502382395535
 21
1053.122674377092
 31
0.0
  0
LINE
  5
81C
330
1F
100
AcDbEntity
  8
Defpoints
100
AcDbLine
 10
1308.502382395535
 20
1231.622674377092
 30
0.0
 11
1308.502382395535
 21
1132.622674377092
 31
0.0
  0
LINE
  5
81E
330
1F
100
AcDbEntity
  8
_U+56FE_U+5C42 1
100
AcDbLine
 10
1308.502382395535
 20
817.1226743770917
 30
0.0
 11
1308.502382395535
 21
717.1226743770916
 31
0.0
  0
LINE
  5
81F
330
1F
100
AcDbEntity
  8
_U+56FE_U+5C42 1
100
AcDbLine
 10
1308.502382395535
 20
817.1226743770917
 30
0.0
 11
1283.502382395535
 21
817.1226743770917
 31
0.0
  0
LINE
  5
820
330
1F
100
AcDbEntity
  8
_U+56FE_U+5C42 1
100
AcDbLine
 10
1308.502382395535
 20
717.1226743770916
 30
0.0
 11
1283.502382395535
 21
717.1226743770916
 31
0.0
  0
ARC
  5
821
330
1F
100
AcDbEntity
  8
_U+56FE_U+5C42 1
100
AcDbCircle
 10
1515.530870526242
 20
1178.875565071071
 30
0.0
 40
70.13945843144774
100
AcDbArc
 50
189.5716844631572
 51
350.4283155368428
  0
ARC
  5
822
330
1F
100
AcDbEntity
  8
_U+56FE_U+5C42 1
100
AcDbCircle
 10
1515.537658575943
 20
1176.970081786353
 30
0.0
 40
45.25740740926077
100
AcDbArc
 50
199.9137673641882
 51
340.0862326358017
  0
ARC
  5
823
330
1F
100
AcDbEntity
  8
_U+56FE_U+5C42 1
100
AcDbCircle
 10
1556.208546040482
 20
1162.236371845622
 30
0.0
 40
2.0
100
AcDbArc
 50
340.0862326358075
 51
2.4048052291423
  0
ARC
  5
824
330
1F
100
AcDbEntity
  8
_U+56FE_U+5C42 1
100
AcDbCircle
 10
1474.866771111403
 20
1162.236371845627
 30
0.0
 40
2.0
100
AcDbArc
 50
177.595194770753
 51
199.9137673641875
  0
ARC
  5
825
330
1F
100
AcDbEntity
  8
_U+56FE_U+5C42 1
100
AcDbCircle
 10
1515.537658575944
 20
1129.772674377091
 30
0.0
 40
11.99999999999999
100
AcDbArc
 50
16.58692828346519
 51
163.4130717165348
  0
LINE
  5
826
330
1F
100
AcDbEntity
  8
Defpoints
100
AcDbLine
 10
1446.454045765523
 20
1166.712674377093
 30
0.0
 11
1475.909664623514
 21
1166.712674377093
 31
0.0
  0
LINE
  5
827
330
1F
100
AcDbEntity
  8
_U+56FE_U+5C42 1
100
AcDbLine
 10
1477.864129055193
 20
1166.582629459363
 30
0.0
 11
1477.864129055193
 21
1162.110493504364
 31
0.0
  0
ARC
  5
828
330
1F
100
AcDbEntity
  8
_U+56FE_U+5C42 1
100
AcDbCircle
 10
1477.864129055193
 20
1162.110493504364
 30
0.0
 40
5.0
100
AcDbArc
 50
96.37937020845448
 51
177.5951947707516
  0
ARC
  5
829
330
1F
100
AcDbEntity
  8
_U+56FE_U+5C42 1
100
AcDbCircle
 10
1477.364129055193
 20
1166.582629459363
 30
0.0
 40
0.5
100
AcDbArc
 50
0.0
 51
96.37937020845448
  0
LINE
  5
82A
330
1F
100
AcDbEntity
  8
Defpoints
100
AcDbLine
 10
1584.607695286961
 20
1166.712674377092
 30
0.0
 11
1555.16565252837
 21
1166.712674377093
 31
0.0
  0
LINE
  5
82B
330
1F
100
AcDbEntity
  8
_U+56FE_U+5C42 1
100
AcDbLine
 10
1553.211188096692
 20
1166.582629459363
 30
0.0
 11
1553.211188096692
 21
1162.110493504364
 31
0.0
  0
ARC
  5
82C
330
1F
100
AcDbEntity
  8
_U+56FE_U+5C42 1
100
AcDbCircle
 10
1553.211188096692
 20
1162.110493504364
 30
0.0
 40
5.0
100
AcDbArc
 50
2.404805229143707
 51
83.62062979154554
  0
ARC
  5
82D
330
1F
100
AcDbEntity
  8
_U+56FE_U+5C42 1
100
AcDbCircle
 10
1553.711188096692
 20
1166.582629459363
 30
0.0
 40
0.5
100
AcDbArc
 50
83.62062979154554
 51
180.0
  0
LWPOLYLINE
  5
85F
330
1F
100
AcDbEntity
  8
_U+56FE_U+5C42 1
100
AcDbPolyline
 90
       73
 70
     0
 43
0.0
 10
1391.396642424566
 20
617.1226743770919
 10
1639.643398546912
 20
617.1226743770919
 10
1644.571732749654
 20
637.3814934221942
 42
-0.3394542588633885
 10
1645.537658575943
 20
638.1226743770919
 10
1768.537658575943
 20
638.1226743770919
 42
0.4142135623730951
 10
1780.537658575943
 20
650.1226743770919
 10
1780.537658575943
 20
884.1226743770917
 42
0.4142135623730951
 10
1768.537658575943
 20
896.1226743770916
 10
1645.537658575943
 20
896.122674377092
 42
-0.9999999999999998
 10
1645.537658575943
 20
898.1226743770916
 10
1664.537658575943
 20
898.1226743770916
 10
1719.926843997279
 20
907.8892822063373
 42
0.3639702342661768
 10
1726.537658575944
 20
915.7677442304347
 10
1726.537658575943
 20
1033.477604523749
 42
0.3639702342661768
 10
1719.92684399728
 20
1041.356066547846
 10
1664.537658575944
 20
1051.122674377092
 10
1645.537658575943
 20
1051.122674377091
 42
-0.9999999999999998
 10
1645.537658575943
 20
1053.122674377092
 10
1690.537658575943
 20
1053.122674377092
 42
0.4142135623730951
 10
1722.537658575943
 20
1085.122674377092
 10
1722.537658575943
 20
1132.622674377092
 10
1742.537658575943
 20
1132.622674377092
 42
0.4142135623730951
 10
1752.537658575943
 20
1142.622674377092
 10
1752.537658575943
 20
1221.622674377092
 42
0.4142135623730951
 10
1742.537658575943
 20
1231.622674377092
 10
1722.537658575943
 20
1231.622674377092
 10
1722.537658575943
 20
1279.122674377092
 42
0.4142135623730951
 10
1690.537658575943
 20
1311.122674377092
 10
1645.537658575943
 20
1311.122674377092
 42
-0.9999999999999998
 10
1645.537658575943
 20
1313.122674377092
 10
1664.537658575943
 20
1313.122674377092
 10
1719.926843997279
 20
1322.889282206337
 42
0.3639702342661768
 10
1726.537658575944
 20
1330.767744230435
 10
1726.537658575943
 20
1448.477604523749
 42
0.3639702342661768
 10
1719.92684399728
 20
1456.356066547846
 10
1664.537658575944
 20
1466.122674377092
 10
1644.537658575944
 20
1466.122674377092
 10
1386.502382395534
 20
1466.122674377092
 10
1366.502382395535
 20
1466.122674377092
 10
1311.113196974199
 20
1456.356066547846
 42
0.3639702342661769
 10
1304.502382395534
 20
1448.477604523749
 10
1304.502382395535
 20
1330.767744230435
 42
0.3639702342661768
 10
1311.113196974198
 20
1322.889282206337
 10
1366.502382395534
 20
1313.122674377092
 10
1385.502382395535
 20
1313.122674377092
 42
-0.9999999999999998
 10
1385.502382395535
 20
1311.122674377092
 10
1340.502382395535
 20
1311.122674377092
 42
0.4142135623730951
 10
1308.502382395535
 20
1279.122674377092
 10
1308.502382395535
 20
1231.622674377092
 10
1288.502382395535
 20
1231.622674377092
 42
0.4142135623730951
 10
1278.502382395534
 20
1221.622674377092
 10
1278.502382395535
 20
1142.622674377092
 42
0.4142135623730951
 10
1288.502382395535
 20
1132.622674377092
 10
1308.502382395535
 20
1132.622674377092
 10
1308.502382395535
 20
1085.122674377092
 42
0.4142135623730951
 10
1340.502382395535
 20
1053.122674377092
 10
1385.502382395535
 20
1053.122674377091
 42
-0.9999999999999998
 10
1385.502382395535
 20
1051.122674377092
 10
1366.502382395535
 20
1051.122674377092
 10
1311.113196974199
 20
1041.356066547846
 42
0.3639702342661769
 10
1304.502382395534
 20
1033.477604523749
 10
1304.502382395535
 20
915.7677442304347
 42
0.3639702342661768
 10
1311.113196974198
 20
907.8892822063373
 10
1366.502382395534
 20
898.1226743770916
 10
1385.502382395535
 20
898.1226743770916
 42
-0.9999999999999998
 10
1385.502382395535
 20
896.122674377092
 10
1262.502382395535
 20
896.1226743770916
 42
0.4142135623730951
 10
1250.502382395535
 20
884.1226743770917
 10
1250.502382395535
 20
650.1226743770919
 42
0.4142135623730951
 10
1262.502382395535
 20
638.1226743770919
 10
1385.502382395535
 20
638.1226743770919
 42
-0.3394542588633897
 10
1386.468308221822
 20
637.3814934221942
 10
1391.396642424566
 20
617.1226743770919
  0
ENDSEC
  0
SECTION
  2
OBJECTS
  0
DICTIONARY
  5
C
330
0
100
AcDbDictionary
281
     1
  3
ACAD_COLOR
350
6B
  3
ACAD_GROUP
350
D
  3
ACAD_LAYOUT
350
1A
  3
ACAD_MATERIAL
350
6A
  3
ACAD_MLINESTYLE
350
17
  3
ACAD_PLOTSETTINGS
350
19
  3
ACAD_PLOTSTYLENAME
350
E
  3
ACAD_TABLESTYLE
350
7E
  3
ACAD_VISUALSTYLE
350
F0
  3
AcDbVariableDictionary
350
5E
  0
DICTIONARY
  5
5F0
330
1F
100
AcDbDictionary
280
     1
281
     1
  3
ACAD_SORTENTS
360
5F1
  0
DICTIONARY
  5
7D6
330
7D5
100
AcDbDictionary
280
     1
281
     1
  3
ACAD_DIMASSOC
360
7D7
  0
DICTIONARY
  5
7D9
330
7D8
100
AcDbDictionary
280
     1
281
     1
  3
ACAD_DIMASSOC
360
7DA
  0
DICTIONARY
  5
6B
102
{ACAD_REACTORS
330
C
102
}
330
C
100
AcDbDictionary
281
     1
  0
DICTIONARY
  5
D
102
{ACAD_REACTORS
330
C
102
}
330
C
100
AcDbDictionary
281
     1
  0
DICTIONARY
  5
1A
102
{ACAD_REACTORS
330
C
102
}
330
C
100
AcDbDictionary
281
     1
  3
Model
350
22
  3
布局1
350
D3
  3
布局2
350
D7
  0
DICTIONARY
  5
6A
102
{ACAD_REACTORS
330
C
102
}
330
C
100
AcDbDictionary
281
     1
  3
ByBlock
350
EE
  3
ByLayer
350
ED
  3
Global
350
EF
  0
DICTIONARY
  5
17
102
{ACAD_REACTORS
330
C
102
}
330
C
100
AcDbDictionary
281
     1
  3
Standard
350
18
  0
DICTIONARY
  5
19
102
{ACAD_REACTORS
330
C
102
}
330
C
100
AcDbDictionary
281
     1
  0
ACDBDICTIONARYWDFLT
  5
E
102
{ACAD_REACTORS
330
C
102
}
330
C
100
AcDbDictionary
281
     1
  3
Normal
350
F
100
AcDbDictionaryWithDefault
340
F
  0
DICTIONARY
  5
7E
102
{ACAD_REACTORS
330
C
102
}
330
C
100
AcDbDictionary
281
     1
  3
Standard
350
7F
  0
DICTIONARY
  5
F0
102
{ACAD_REACTORS
330
C
102
}
330
C
100
AcDbDictionary
281
     1
  3
2dWireframe
350
F6
  3
3D Hidden
350
F8
  3
3dWireframe
350
F7
  3
Basic
350
F5
  3
Brighten
350
FC
  3
ColorChange
350
100
  3
Conceptual
350
F9
  3
Dim
350
FB
  3
Facepattern
350
FF
  3
Flat
350
F1
  3
FlatWithEdges
350
F2
  3
Gouraud
350
F3
  3
GouraudWithEdges
350
F4
  3
Linepattern
350
FE
  3
Realistic
350
FA
  3
Thicken
350
FD
  0
DICTIONARY
  5
5E
102
{ACAD_REACTORS
330
C
102
}
330
C
100
AcDbDictionary
281
     1
  3
CTABLESTYLE
350
84
  3
DIMASSOC
350
5F
  3
HIDETEXT
350
63
  0
SORTENTSTABLE
  5
5F1
102
{ACAD_REACTORS
330
5F0
102
}
330
5F0
100
AcDbSortentsTable
330
1F
331
7EA
  5
80F
331
82B
  5
8AA
331
824
  5
8A3
331
7E2
  5
807
331
7A1
  5
7A6
331
7DF
  5
804
331
821
  5
8A0
331
828
  5
8A7
331
7A6
  5
7AB
331
7E7
  5
80C
331
7D4
  5
7FD
331
7F4
  5
825
331
7EC
  5
813
331
7AB
  5
7B2
331
82D
  5
8AC
331
826
  5
8A5
331
7E4
  5
809
331
31B
  5
31B
331
823
  5
8A2
331
82A
  5
8A9
331
7A8
  5
7B1
331
7E9
  5
80E
331
7E1
  5
806
331
7B9
  5
7FB
331
7DE
  5
803
331
81F
  5
89E
331
7A5
  5
7A9
331
7E6
  5
80B
331
820
  5
89F
331
7DB
  5
801
331
85F
  5
88D
331
81C
  5
89B
331
7F3
  5
822
331
825
  5
8A4
331
82C
  5
8AB
331
7EB
  5
811
331
7E3
  5
808
331
7D8
  5
800
331
7F0
  5
81B
331
7E8
  5
80D
331
829
  5
8A8
331
801
  5
866
331
822
  5
8A1
331
7E0
  5
805
331
79F
  5
79F
331
7DD
  5
802
331
7D5
  5
7FF
331
81E
  5
89D
331
7ED
  5
814
331
827
  5
8A6
331
7AC
  5
7DD
331
7A4
  5
7A8
331
7E5
  5
80A
  0
DIMASSOC
  5
7D7
102
{ACAD_REACTORS
330
7D6
102
}
330
7D6
100
AcDbDimAssoc
330
7D5
 90
        3
 70
     0
 71
     0
  1
AcDbOsnapPointRef
 72
    10
331
7A4
 73
     2
 91
        0
 40
0.1390237162708026
 10
0.0
 20
0.0
 30
0.0
 75
     0
  1
AcDbOsnapPointRef
 72
     8
331
79F
 73
     2
 91
        0
 40
0.8611297047737537
 10
0.0
 20
0.0
 30
0.0
 75
     1
  1
AcDbOsnapPointRef
 72
    10
331
7A4
 73
     2
 91
        0
 40
0.1390237162708026
 10
0.0
 20
0.0
 30
0.0
 75
     0
  0
DIMASSOC
  5
7DA
102
{ACAD_REACTORS
330
7D9
102
}
330
7D9
100
AcDbDimAssoc
330
7D8
 90
        3
 70
     0
 71
     0
  1
AcDbOsnapPointRef
 72
     2
331
7A5
 73
     2
 91
        0
 40
0.5000000000000006
 10
0.0
 20
0.0
 30
0.0
 75
     0
  1
AcDbOsnapPointRef
 72
     2
331
7A4
 73
     2
 91
        0
 40
0.5000000000000006
 10
0.0
 20
0.0
 30
0.0
 75
     0
  0
LAYOUT
  5
22
102
{ACAD_REACTORS
330
1A
102
}
330
1A
100
AcDbPlotSettings
  1

  2
none_device
  4
ISO_A4_(210.00_x_297.00_MM)
  6

 40
7.5
 41
20.0
 42
7.5
 43
20.0
 44
210.0
 45
297.0
 46
11.54999923706054
 47
-13.65000009536743
 48
0.0
 49
0.0
140
0.0
141
0.0
142
1.0
143
8.704084754739808
 70
 11952
 72
     1
 73
     0
 74
     0
  7

 75
     0
147
0.1148885871608098
 76
     0
 77
     2
 78
   300
148
0.0
149
0.0
100
AcDbLayout
  1
Model
 70
     1
 71
     0
 10
0.0
 20
0.0
 11
12.0
 21
9.0
 12
0.0
 22
0.0
 32
0.0
 14
0.0
 24
0.0
 34
0.0
 15
0.0
 25
0.0
 35
0.0
146
0.0
 13
0.0
 23
0.0
 33
0.0
 16
1.0
 26
0.0
 36
0.0
 17
0.0
 27
1.0
 37
0.0
 76
     0
330
1F
331
EB
1001
ACAD_PSEXT
1000
None
1000
None
1000
Not applicable
1000
The layout will not be plotted unless a new plotter configuration name is selected.
1070
     0
  0
LAYOUT
  5
D3
102
{ACAD_REACTORS
330
1A
102
}
330
1A
100
AcDbPlotSettings
  1

  2
C:\Documents and Settings\basas\Application Data\Autodesk\AutoCAD 2005\R16.1\enu\plotters\Default Windows System Printer.pc3
  4

  6

 40
0.0
 41
0.0
 42
0.0
 43
0.0
 44
0.0
 45
0.0
 46
0.0
 47
0.0
 48
0.0
 49
0.0
140
0.0
141
0.0
142
1.0
143
1.0
 70
   688
 72
     0
 73
     0
 74
     5
  7

 75
    16
147
1.0
 76
     0
 77
     2
 78
   300
148
0.0
149
0.0
100
AcDbLayout
  1
布局1
 70
     1
 71
     1
 10
0.0
 20
0.0
 11
12.0
 21
9.0
 12
0.0
 22
0.0
 32
0.0
 14
0.0
 24
0.0
 34
0.0
 15
0.0
 25
0.0
 35
0.0
146
0.0
 13
0.0
 23
0.0
 33
0.0
 16
1.0
 26
0.0
 36
0.0
 17
0.0
 27
1.0
 37
0.0
 76
     0
330
D2
  0
LAYOUT
  5
D7
102
{ACAD_REACTORS
330
1A
102
}
330
1A
100
AcDbPlotSettings
  1

  2
C:\Documents and Settings\basas\Application Data\Autodesk\AutoCAD 2005\R16.1\enu\plotters\Default Windows System Printer.pc3
  4

  6

 40
0.0
 41
0.0
 42
0.0
 43
0.0
 44
0.0
 45
0.0
 46
0.0
 47
0.0
 48
0.0
 49
0.0
140
0.0
141
0.0
142
1.0
143
1.0
 70
   688
 72
     0
 73
     0
 74
     5
  7

 75
    16
147
1.0
 76
     0
 77
     2
 78
   300
148
0.0
149
0.0
100
AcDbLayout
  1
布局2
 70
     1
 71
     2
 10
0.0
 20
0.0
 11
12.0
 21
9.0
 12
0.0
 22
0.0
 32
0.0
 14
0.0
 24
0.0
 34
0.0
 15
0.0
 25
0.0
 35
0.0
146
0.0
 13
0.0
 23
0.0
 33
0.0
 16
1.0
 26
0.0
 36
0.0
 17
0.0
 27
1.0
 37
0.0
 76
     0
330
D6
  0
MATERIAL
  5
EE
102
{ACAD_REACTORS
330
6A
102
}
330
6A
100
AcDbMaterial
  1
ByBlock
  0
MATERIAL
  5
ED
102
{ACAD_REACTORS
330
6A
102
}
330
6A
100
AcDbMaterial
  1
ByLayer
  0
MATERIAL
  5
EF
102
{ACAD_REACTORS
330
6A
102
}
330
6A
100
AcDbMaterial
  1
Global
  0
MLINESTYLE
  5
18
102
{ACAD_REACTORS
330
17
102
}
330
17
100
AcDbMlineStyle
  2
STANDARD
 70
     0
  3

 62
   256
 51
90.0
 52
90.0
 71
     2
 49
0.5
 62
   256
  6
BYLAYER
 49
-0.5
 62
   256
  6
BYLAYER
  0
ACDBPLACEHOLDER
  5
F
102
{ACAD_REACTORS
330
E
102
}
330
E
  0
TABLESTYLE
  5
7F
102
{ACAD_REACTORS
330
7E
102
}
330
7E
100
AcDbTableStyle
  3
Standard
 70
     0
 71
     0
 40
1.5
 41
1.5
280
     0
281
     0
  7
Standard
140
4.5
170
     2
 62
     0
 63
     7
283
     0
 90
      512
 91
        0
  1

274
    -2
284
     1
 64
     0
275
    -2
285
     1
 65
     0
276
    -2
286
     1
 66
     0
277
    -2
287
     1
 67
     0
278
    -2
288
     1
 68
     0
279
    -2
289
     1
 69
     0
  7
Standard
140
6.0
170
     5
 62
     0
 63
     7
283
     0
 90
      512
 91
        0
  1

274
    -2
284
     1
 64
     0
275
    -2
285
     1
 65
     0
276
    -2
286
     1
 66
     0
277
    -2
287
     1
 67
     0
278
    -2
288
     1
 68
     0
279
    -2
289
     1
 69
     0
  7
Standard
140
4.5
170
     5
 62
     0
 63
     7
283
     0
 90
      512
 91
        0
  1

274
    -2
284
     1
 64
     0
275
    -2
285
     1
 65
     0
276
    -2
286
     1
 66
     0
277
    -2
287
     1
 67
     0
278
    -2
288
     1
 68
     0
279
    -2
289
     1
 69
     0
  0
VISUALSTYLE
  5
F6
102
{ACAD_REACTORS
330
F0
102
}
330
F0
100
AcDbVisualStyle
  2
2dWireframe
 70
     4
 71
     0
 72
     2
 73
     1
 90
        0
 40
-0.6
 41
-30.0
 62
     5
 63
     7
421
 16777215
 74
     1
 91
        4
 64
     7
 65
   257
 75
     1
175
     1
 42
1.0
 92
        0
 66
   257
 43
1.0
 76
     1
 77
     6
 78
     2
 67
     7
 79
     5
170
     0
171
     0
290
     0
174
     0
 93
        1
 44
0.0
173
     0
291
     0
 45
0.0
  0
VISUALSTYLE
  5
F8
102
{ACAD_REACTORS
330
F0
102
}
330
F0
100
AcDbVisualStyle
  2
3D Hidden
 70
     6
 71
     1
 72
     2
 73
     2
 90
        0
 40
-0.6
 41
-30.0
 62
     5
 63
     7
421
 16777215
 74
     2
 91
        2
 64
     7
 65
   257
 75
     2
175
     1
 42
40.0
 92
        0
 66
   257
 43
1.0
 76
     1
 77
     6
 78
     2
 67
     7
 79
     3
170
     0
171
     0
290
     0
174
     0
 93
        1
 44
0.0
173
     0
291
     0
 45
0.0
  0
VISUALSTYLE
  5
F7
102
{ACAD_REACTORS
330
F0
102
}
330
F0
100
AcDbVisualStyle
  2
3dWireframe
 70
     5
 71
     0
 72
     2
 73
     1
 90
        0
 40
-0.6
 41
-30.0
 62
     5
 63
     7
421
 16777215
 74
     1
 91
        4
 64
     7
 65
   257
 75
     1
175
     1
 42
1.0
 92
        0
 66
   257
 43
1.0
 76
     1
 77
     6
 78
     2
 67
     7
 79
     5
170
     0
171
     0
290
     0
174
     0
 93
        1
 44
0.0
173
     0
291
     0
 45
0.0
  0
VISUALSTYLE
  5
F5
102
{ACAD_REACTORS
330
F0
102
}
330
F0
100
AcDbVisualStyle
  2
Basic
 70
     7
 71
     1
 72
     0
 73
     1
 90
        0
 40
-0.6
 41
-30.0
 62
     5
 63
     7
421
 16777215
 74
     0
 91
        4
 64
     7
 65
   257
 75
     1
175
     1
 42
1.0
 92
        8
 66
     7
 43
1.0
 76
     1
 77
     6
 78
     2
 67
     7
 79
     5
170
     0
171
     0
290
     0
174
     0
 93
        1
 44
0.0
173
     0
291
     1
 45
0.0
  0
VISUALSTYLE
  5
FC
102
{ACAD_REACTORS
330
F0
102
}
330
F0
100
AcDbVisualStyle
  2
Brighten
 70
    12
 71
     2
 72
     2
 73
     1
 90
        0
 40
-0.6
 41
-30.0
 62
     5
 63
     7
421
 16777215
 74
     1
 91
        4
 64
     7
 65
   257
 75
     1
175
     1
 42
1.0
 92
        8
 66
     7
 43
1.0
 76
     1
 77
     6
 78
     2
 67
     7
 79
     5
170
     0
171
     0
290
     0
174
     0
 93
        1
 44
50.0
173
     0
291
     1
 45
0.0
  0
VISUALSTYLE
  5
100
102
{ACAD_REACTORS
330
F0
102
}
330
F0
100
AcDbVisualStyle
  2
ColorChange
 70
    16
 71
     2
 72
     2
 73
     3
 90
        0
 40
-0.6
 41
-30.0
 62
     5
 63
     8
421
  8421504
 74
     1
 91
        4
 64
     7
 65
   257
 75
     1
175
     1
 42
1.0
 92
        8
 66
     8
424
  8421504
 43
1.0
 76
     1
 77
     6
 78
     2
 67
     7
 79
     5
170
     0
171
     0
290
     0
174
     0
 93
        1
 44
0.0
173
     0
291
     1
 45
0.0
  0
VISUALSTYLE
  5
F9
102
{ACAD_REACTORS
330
F0
102
}
330
F0
100
AcDbVisualStyle
  2
Conceptual
 70
     9
 71
     3
 72
     2
 73
     1
 90
        0
 40
-0.6
 41
-30.0
 62
     5
 63
     7
421
 16777215
 74
     2
 91
        2
 64
     7
 65
   257
 75
     1
175
     1
 42
40.0
 92
        8
 66
     7
 43
1.0
 76
     1
 77
     6
 78
     2
 67
     7
 79
     3
170
     0
171
     0
290
     0
174
     0
 93
        1
 44
0.0
173
     0
291
     0
 45
0.0
  0
VISUALSTYLE
  5
FB
102
{ACAD_REACTORS
330
F0
102
}
330
F0
100
AcDbVisualStyle
  2
Dim
 70
    11
 71
     2
 72
     2
 73
     1
 90
        0
 40
-0.6
 41
-30.0
 62
     5
 63
     7
421
 16777215
 74
     1
 91
        4
 64
     7
 65
   257
 75
     1
175
     1
 42
1.0
 92
        8
 66
     7
 43
1.0
 76
     1
 77
     6
 78
     2
 67
     7
 79
     5
170
     0
171
     0
290
     0
174
     0
 93
        1
 44
-50.0
173
     0
291
     1
 45
0.0
  0
VISUALSTYLE
  5
FF
102
{ACAD_REACTORS
330
F0
102
}
330
F0
100
AcDbVisualStyle
  2
Facepattern
 70
    15
 71
     2
 72
     2
 73
     1
 90
        0
 40
-0.6
 41
-30.0
 62
     5
 63
     7
421
 16777215
 74
     1
 91
        4
 64
     7
 65
   257
 75
     1
175
     1
 42
1.0
 92
        8
 66
     7
 43
1.0
 76
     1
 77
     6
 78
     2
 67
     7
 79
     5
170
     0
171
     0
290
     0
174
     0
 93
        1
 44
0.0
173
     0
291
     1
 45
0.0
  0
VISUALSTYLE
  5
F1
102
{ACAD_REACTORS
330
F0
102
}
330
F0
100
AcDbVisualStyle
  2
Flat
 70
     0
 71
     2
 72
     1
 73
     1
 90
        2
 40
-0.6
 41
30.0
 62
     5
 63
     7
421
 16777215
 74
     0
 91
        4
 64
     7
 65
   257
 75
     1
175
     1
 42
1.0
 92
        8
 66
     7
 43
1.0
 76
     1
 77
     6
 78
     2
 67
     7
 79
     5
170
     0
171
     0
290
     0
174
     0
 93
        1
 44
0.0
173
     0
291
     1
 45
0.0
  0
VISUALSTYLE
  5
F2
102
{ACAD_REACTORS
330
F0
102
}
330
F0
100
AcDbVisualStyle
  2
FlatWithEdges
 70
     1
 71
     2
 72
     1
 73
     1
 90
        2
 40
-0.6
 41
30.0
 62
     5
 63
     7
421
 16777215
 74
     1
 91
        4
 64
     7
 65
   257
 75
     1
175
     1
 42
1.0
 92
        0
 66
   257
 43
1.0
 76
     1
 77
     6
 78
     2
 67
     7
 79
     5
170
     0
171
     0
290
     0
174
     0
 93
        1
 44
0.0
173
     0
291
     1
 45
0.0
  0
VISUALSTYLE
  5
F3
102
{ACAD_REACTORS
330
F0
102
}
330
F0
100
AcDbVisualStyle
  2
Gouraud
 70
     2
 71
     2
 72
     2
 73
     1
 90
        2
 40
-0.6
 41
30.0
 62
     5
 63
     7
421
 16777215
 74
     0
 91
        4
 64
     7
 65
   257
 75
     1
175
     1
 42
1.0
 92
        0
 66
     7
 43
1.0
 76
     1
 77
     6
 78
     2
 67
     7
 79
     5
170
     0
171
     0
290
     0
174
     0
 93
        1
 44
0.0
173
     0
291
     1
 45
0.0
  0
VISUALSTYLE
  5
F4
102
{ACAD_REACTORS
330
F0
102
}
330
F0
100
AcDbVisualStyle
  2
GouraudWithEdges
 70
     3
 71
     2
 72
     2
 73
     1
 90
        2
 40
-0.6
 41
30.0
 62
     5
 63
     7
421
 16777215
 74
     1
 91
        4
 64
     7
 65
   257
 75
     1
175
     1
 42
1.0
 92
        0
 66
   257
 43
1.0
 76
     1
 77
     6
 78
     2
 67
     7
 79
     5
170
     0
171
     0
290
     0
174
     0
 93
        1
 44
0.0
173
     0
291
     1
 45
0.0
  0
VISUALSTYLE
  5
FE
102
{ACAD_REACTORS
330
F0
102
}
330
F0
100
AcDbVisualStyle
  2
Linepattern
 70
    14
 71
     2
 72
     2
 73
     1
 90
        0
 40
-0.6
 41
-30.0
 62
     5
 63
     7
421
 16777215
 74
     1
 91
        4
 64
     7
 65
   257
 75
     7
175
     7
 42
1.0
 92
        8
 66
     7
 43
1.0
 76
     1
 77
     6
 78
     2
 67
     7
 79
     5
170
     0
171
     0
290
     0
174
     0
 93
        1
 44
0.0
173
     0
291
     1
 45
0.0
  0
VISUALSTYLE
  5
FA
102
{ACAD_REACTORS
330
F0
102
}
330
F0
100
AcDbVisualStyle
  2
Realistic
 70
     8
 71
     2
 72
     2
 73
     1
 90
        0
 40
-0.6
 41
-30.0
 62
     5
 63
     7
421
 16777215
 74
     1
 91
        0
 64
     7
 65
   257
 75
     1
175
     1
 42
1.0
 92
        8
 66
     8
424
  7895160
 43
1.0
 76
     1
 77
     6
 78
     2
 67
     7
 79
     5
170
     0
171
     0
290
     0
174
     0
 93
       13
 44
0.0
173
     0
291
     0
 45
0.0
  0
VISUALSTYLE
  5
FD
102
{ACAD_REACTORS
330
F0
102
}
330
F0
100
AcDbVisualStyle
  2
Thicken
 70
    13
 71
     2
 72
     2
 73
     1
 90
        0
 40
-0.6
 41
-30.0
 62
     5
 63
     7
421
 16777215
 74
     1
 91
        4
 64
     7
 65
   257
 75
     1
175
     1
 42
1.0
 92
       12
 66
     7
 43
1.0
 76
     1
 77
     6
 78
     2
 67
     7
 79
     5
170
     0
171
     0
290
     0
174
     0
 93
        1
 44
0.0
173
     0
291
     1
 45
0.0
  0
DICTIONARYVAR
  5
84
102
{ACAD_REACTORS
330
5E
102
}
330
5E
100
DictionaryVariables
280
     0
  1
STANDARD
  0
DICTIONARYVAR
  5
5F
102
{ACAD_REACTORS
330
5E
102
}
330
5E
100
DictionaryVariables
280
     0
  1
2
  0
DICTIONARYVAR
  5
63
102
{ACAD_REACTORS
330
5E
102
}
330
5E
100
DictionaryVariables
280
     0
  1
1
  0
ENDSEC
  0
EOF
